BASIC
ADVANCED
EXPERT
MASTER
(137){8}
Cf/E3/E7/B2/B3/B6/B7,,,1x-5[8:1],,1/8x^5[8:1],,1x^4[8:1]/8,,1/8x-4[8:1],,2x-6[8:1]/8,,2/7x,8,1,
2xh[4:1]/7xh[4:1],,,4x/5x,,1x>8[8:3]/8x,,,,,,,4-1[8:1]/5-8[8:1],,,,
2b/7b,,45,{16}3,4,2,,5,4,6,,3,4,1,,5,4,{8}7,68,2,13,4^1[8:1]/8,57,
6xh[4:1],,{12}8,8,8,{8}17,26,35,4h[8:3],,,{32}6,7,8,1,2,3,4,5,{16}1b,,7,8,7-3[8:1],,8,,
17,,,,24,,6,5,7,,4,5,3,,6,5,8,,17,,2-6[8:1]/6,,,,7h[16:3],,,5,,8,{8}1,
3h[4:1]/7^4[8:1],,,2,2^5[8:1],,7,8,12,4,78,5,1^4[8:1]/8^5[8:1],,,,
27,{16}8,1,8,,2,4,{12}3,3,5,4,4,6,{2}5x^2[8:1]/6xV41[8:1],5x^2[8:1]/6xV41[8:1],
{16}45,,7,8,7,2,1,2,5,4,5,4,5,,27,,{2}3xV58[8:1]/4x^7[8:1],3xV58[8:1]/4x^7[8:1],
{16}45,,2,4,3,5,4,6,5,7,4,8h[16:5],{8}3^6[8:1],,3,,57,1,24,8,56,1,
3x/4-8[8:1],3x/4,1-3[12:1],1,7-5[12:1],7,2qq6[2:1],2,4h[4:3],,,,,,{16}7,8,1,2,
{8}3/7xh[1:1],,,5,,5,5,,2h[1:1],,,4,,4,4,,
6xh[8:1],,5h[8:1],,4h[8:1],,3h[8:1],,2,3,6,5,3,4,5x,5x,
3xh[8:1],,4h[8:1],,5h[8:1],,6h[8:1],4x,4x/7h[8:1],,8h[8:1],,1h[8:1],,37,,
1x/2h[16:3],{16},3h[16:3],,,4,,7h[16:3]/8x,,,6h[16:3],{8},5xp4[4:1],4x/5x,,,1,1^4[8:1]/5^8[8:1],,1b/5b,,
3/7-3[8:1],,1h[4:1]/7,,8,45,2-4[12:1]/7,,2/8-4[8:1],7,1-5[8:1]/8,2,1/7-4[8:1],8,2-6[8:1]/7,1,
2/7-5[12:1],8,1-5[8:1]/7,2,1/8-4[8:1],7,2-6[8:1]/8,1,2/7-4[8:1],8,2-5[8:1]/7,1,2/7-3[8:1],8,2>8[16:5]/7,1,
26,,,5,46,37,28,1,4^1[8:1]/6^1[8:1],,4/6^4[12:1],,1w5[8:1],,1,,
3/7-3[8:1],,17,{16},4-1[8:1],,,8,,8,,,,3xh[8:1]/5h[8:1],,,4h[8:1]/7xh[8:1],,,2xh[8:1]/6h[8:1],,,3h[8:1]/8xh[8:1],{8},2/4x<3[2:1],3/6x,
4/8b,,,,4-8[8:1],,2,,57,8,57,1,57,8,57,1,
2-6[8:1]/4,,28,{16},5-8[8:1],{8},1,1,,46,5,24,3,47,6,15,3,
5-1[8:1]/6,8,8,,{32}E1,E8,E7,E6,E5,E4,E3,E2,{8}E1,2x/7x,{4}2b^4[12:1]/7b^5[12:1],,Cfh[16:3]/E3/E7/B2/B7,,
1^4[8:1]/8,{16}17,,,5^8[8:1],,,1,,1,,,,2x/3,,,6/7x-3[8:1],{8},5x,1x,,4b/5b,,
1h[1:2],,,6,,,6,,5,,,4,,,Cf,,
8h[1:2],,,3,,,3,,4,,,5,,,Cf,,
1xh[4:1],,8,1/7h[4:1],,1,26,,3xh[4:1]/7x,,7,4/6h[4:1],,4,5x/Cf,,
2xh[4:1]/8,7,6,35,1/7xh[4:1],2,3,46,3h[8:1]/5xh[8:1],{16},4xh[8:1]/7h[8:1],,,2h[8:1]/6xh[8:1],,,4xh[8:1]/8h[8:1],,,5x/7x,,1/8x,,
2b-6[8:1]/4,,,,28,,,5^2[8:1]/7,{8},8,8,,35,1,24,8,35,1,24,8,
5/7-3[8:1],,17,{16},2/4^7[8:1],{8},1,1,,46,8,57,1,46,8,57,1,
2/4-8[8:1],,34,{16},5-1[8:1]/7,{8},8,8,,24,1,35,8,46,1,57,8,
5-1[8:1]/6,,57,{16},2/4-8[8:1],,,1,,1,,,,57,,,24,{8},1x/E7/B6,8x/E3/B3,,4b/5b,,
2-6[8:1]/6,,2/8h[4:1],,1,45,2/7-1[8:1],,3-5[8:1]/7,2,3/7-3[8:1],8,2-8[8:1]/7,1,2/6-2[8:1],7,
4-1[8:1]/6,3,4/7-4[8:1],8,2-5[8:1]/7,1,2/7-1[8:1],8,3-7[8:1]/7,2,3/5-8[8:1],6,2-6[8:1]/5,1,2/7<1[16:5],8,
37,,,4,35,26,17,8,3^8[8:1]/5^8[8:1],,3^5[12:1]/5,,8w4[8:1],,8,,
2-4[12:1]/6-8[12:1],,26,{16},1w5[8:1]/5,,,28,,Cf,,,,4h[8:1]/6xh[8:1],,,2xh[8:1]/5h[8:1],,,3h[8:1]/7xh[8:1],,,1xh[8:1]/6h[8:1],{8},5x>6[2:1]/7,3x/6,
1b/5,,,,5-1[8:1],,7,,24,1,24,8,24,1,24,8,
5/7-3[8:1],,78,{16},2-6[8:1]/4,{8},1,1,,57,6,25,3,48,7,26,3,
4/5<4[4:1],1,1h[8:5],,{32}E5,E6,E7,E8,E1,E2,E3,E4,{8}E5,8x,{4}1b^4[12:1]/8b^5[12:1],,Cfh[16:3]/E3/E7/B2/B7,,
1/8-4[8:1],{16}48,,,2-6[8:1],,,4,,8b,,,,2-4[12:1]/6-8[12:1],,,26,{8},1x/5x,3xp7[8:1]/7xp3[8:1],,{1}3b/7b/Cf,,,E
Re:MASTER
最終更新:2026年05月23日 16:02