アットウィキロゴ

Starlight Disco〈でらっくす〉

アーティスト loos feat. Meramipop

BPM BASIC ADVANCED EXPERT MASTER Re:MASTER
128 4 7 11+ 13 -

EXPERT MASTER Re:MASTER
譜面制作者 Starlight Disco Festa Starlight Disco Festa -

BASIC


ADVANCED


EXPERT


MASTER

(128)
{2},{16},,4,5,4-8[8:1],,,,
{2}7V53[4:1],1V75[4:1],3V17[4:1],{16}5,,6,6,4,4,7,7,
{4}28,C,18,C,8,C,7,C,6h[8:1],C/6h[8:1],5h[8:1],C/5h[8:1],4h[8:1],C/4h[8:1],3h[8:1],C/3h[8:1],
2h[8:1],C/2h[8:1],1h[8:1],{8}Chf[8:1],{4}B1/B2/B3/B4/B5/B6/B7/B8,,,{8}45,2b-4[8:1]/8b,,

5,6,5/7h[4:1],6,5-1[8:1],4,3,3V15[4:1],8,8,7,6,6,5,4h[4:1]/7x-5[8:1],,
,3,4/2h[4:1],3,4-8[8:1],5,6,6V84[4:1],1,1,2,3,3,4,5h[4:1]/2x-8[8:1],,
,6,5/7h[4:1],6,4-8[8:1],3,2,2V48[4:1],7,7,6,5,5,6,4/7x-1[8:1],,
2-6[8:1],2,5-3[8:1],5,1,1,8,Ch[4:1],,7,7,6,2,35,1b/Cf,,

78,15,{16}2,4,3,6,5-1[8:1],,8,8,,7,{8}7h[8:1],2^5[8:1],3,6^1[8:1],7,3^6[8:1],2,8x,,
21,84,{16}7,5,6,3,4-8[8:1],,1,1,,2,{8}2h[8:1],7^4[8:1],6,3^8[8:1],2,6^3[8:1],7,1x,,
78,15,{16}2,4,3,6,5-1[8:1],,8,8,,7,{8}7h[8:1],2^5[8:1],3,6^1[8:1],7,3^6[8:1],2,6x,7,
3-8[8:1]/8-3[8:1],3V15[4:1]/8V25[4:1],{2}38,{8}4x/6x,4x/6x,,35,46,45,36,27,1/8^6[8:1],,

{16}8b^2[8:1]/4,,,4,8^6[8:1],,4,,8^2[8:1]/5,,,5,8^6[8:1],,5,,8^2[8:1]/4,,,4,{8}8,4,47,36,4/1^7[8:1],,
{16}1^3[8:1]/4,,,4,1^7[8:1],,4,,1^3[8:1]/5,,,5,{8}1,5,46,7>5[4:1],5,Cf,,1x,7x/1x-3[8:1],,
{16}1-7[8:1]/5,,,5,1-3[8:1],,5,,1-7[8:1]/4,,,4,1-3[8:1],,4,,
1-7[8:1]/5,,,5,1-3[8:1],,5,,14,,,4,{8}3,2-7[8:1]/3^8[8:1],
23,,,6-3[8:1]/7^4[8:1],67,,,1^4[8:1]/2-5[8:1],12,{4}1-6[8:1]/2^7[8:1],1/2w6[8:1],2`Cf,{16}8,,

8-5[8:1],,,1/8-3[8:1],,,8,,,4,4,,12,,38,,47,,6,5,,7,8,,3,4,,2,1,,38,,
4-1[8:1],,,5/4-7[8:1],,,4,,,8,8,,17,,6,,35,,2,1,,3,4,,6,5,7,,48,,26,,
1^4[8:1],,,1^6[8:1]/8,,,1,,,5,5,,34,,25,,16,,7,8,,6,5,,3,24,,6,57,,8,,
5/7-3[8:1],,1,1,,,2,,4/2-6[8:1],,8,8,,,7,,
57,,4-1[8:1]/8-5[8:1],48,,,{4}4b-6[8:1]/8b-2[8:1],4bV27[8:9]/8bV63[8:9],{1}4b/8b,,,,E

Re:MASTER


  • MASTER譜面を追加しました。修正等ありましたらよろしくお願いします。 -- けもがみ (2026-04-10 12:42:08)
名前:
コメント:

タグ:

+ タグ編集
  • タグ:
最終更新:2026年04月10日 12:42