アットウィキロゴ

ボッカデラベリタ

アーティスト 柊キライ

BPM BASIC ADVANCED EXPERT MASTER Re:MASTER
170 3 7 10 13 -

EXPERT MASTER Re:MASTER
譜面制作者 翠楼屋 Redarrow -

BASIC


ADVANCED


EXPERT


MASTER

(170)
{1},
{16}1,,,,1,,,,1h[16:3],,,2h[16:3],,,{8}3,1,1,1,1,{16}1h[16:3],,,2h[16:3],,,4,,
{8},3,3h[1:1],,{4}4,4,2,2-4[8:1],3-5[8:1],,
{16}7,,,,7,,,,7h[16:3],,,6h[16:3],,,{8}5,7,7,7,7,{16}7h[16:3],,,6h[16:3],,,5,,
{8},6,6h[4:3],,{4}5,5,7pp4[2:1]*qq4[2:1],,,,
{8}26,,3,3,5,5,{16}3-6[8:1],4,,4,3,,,,{8}7,7,5,5,{16}7-4[8:1],6,,6,
{8}7,,2,2,4,4,{16}2-5[8:1],3,,3,2,,,,{8}5x/6x,4,56,7,56,4,
{8}37,,6,6,4,4,{16}6-3[8:1],5,,5,6,,,,{8}2,2,4,4,{16}2-5[8:1],3,,3,
{8}2,,7,7,5,5,{16}7-4[8:1],6,,6,7,,,,{8}3x/4x,2,34,5,26,,
{4}3h[8:1]/5h[8:1],3h[8:1]/5h[8:1],4h[8:1]/6h[8:1],4h[8:1]/6h[8:1],{8}45,45,5/4v3[4:1],45,4/5v6[4:1],,,,
{8}2,2h[8:7],,,{4}1,1,3h[2:1],,4h[2:1],,
{8}7,7h[8:7],,,,,{4}6,6h[2:1],,5h[2:1],,
{8}4,4h[8:3],,,,,35,3z7[8:5]/5s1[8:5],{1},
{16}2-8[8:1],,,,7,,,,7h[16:3],,,6h[16:3],,,{8}5,4,4,5,5,{16}4h[16:3],,,6,,4,5,,
{8},6,6v4[4:1],,4-2[8:1],,,,3,3,3,,2^5[4:1]/4p6[4:1],,,,
{4},7h[4:1],6h[4:1],5,{16}4,,4,,4q1[4:1],5-1[16:3],,,{2},
{8}2-5[8:1],2,2,,6-1[8:1],6,6,,{4}48,2v4[8:1]/6v8[8:1],,37,
{4}5>8[8:3]/6h[4:3],,,8xh[4:3],3xb,3xb,3xb-7[8:1],,
{16}8,,,,8,,,,8h[16:3],,,7h[16:3],,,{8}6,8,8,8,8,{16}8h[16:3],,,7h[16:3],,,6,,
{8},4,3,2,1,8,7,6,35,3,6/4-7[8:1],6,5-1[8:1],,,,
{16}2,,,,2,,,,2h[16:3],,,3h[16:3],,,{8}4,2,2,2,2,{16}2h[16:3],,,3h[16:3],,,4,,
{8},2,3,4,5,6,7,8,1s5[4:1]/1z5[4:1],,,,,,3b/7b,,
{8}4-8[8:1],6-1[8:1],4,6,3-7[8:1],5-1[8:1],3,5,,2,34,5,26,3,45,6,
{8}4-7[8:1],6-2[8:1],4,6,3-7[8:1],5-1[8:1],3,5,,2,2,3pp8[4:1],3/8h[4:1],,,,
{8}7b-4[8:1]b,2b-6[8:1]b,7b,2b,5-1[8:1],3-7[8:1],5,3,,8,17,6,25,3,46,5,
{16}7-1[8:1]*-4[8:1],,,,7,,,,2h[16:3],,,3h[16:3],,,{8}4,5b>2[8:1]*<8[8:1],,{4}5bw1[8:1],5b,37,
{8}2qq7[2:1],,4,4,5,5,6,,56,,4,4,3-5[8:1]/5-8[8:1],,,,
{8}7pp2[2:1],,5,5,4,4,3,,{1}1V37-5[2:1]/2V84-6[2:1],
{8}4qq1[2:1],,6,6,7,7,8,,2,2,4,4,3h[4:1]/5-1[8:1],,,,
{8}8qq5[2:1],,2,2,3,3,4,,{4}4z8[4:1]/5s1[4:1],,,37,
{16}1x/2x,,,1x/2x,,,1x/2x,,7,7h[8:1],,5,6,5,6,,1,1,,3,3,,5,5,,,{8}46,7,46,
{16},,2h[8:1],,1,2,,,7h[8:1],,8,7,,1,8,,{8}12,3,48,7,56,4,37,,
{8}56,56,47,47,,45,36,{16}45,,,3,4h[8:1],,3,4,3,4,2,5,2,5,2,,,,
{8}16,7,8,1,28,1,8,8,2-5[8:1]/7-4[8:1],,27,,{24}4x,5x,4x,5x,4x,5x,4x,,,,,,
{4}3h[4:15],D2/E2,,D1/E1,,D2/E2,,D1/E1,
{4},1x,2,2,4,4,5,5,
{4}3x/5x,5/D2/E2,35,5/D1/E1,4x/6x,6/D2/E2,46,6/D1/E1,
{8}78,78,16,16,25,25,{16}3,4,3,4,3>3[2:1]*<3[2:1],,,,,,,,{2},
{16}5-2[8:1]b*-8[8:1]b,,,,5b,,,,1h[8:1]/7h[8:1],,,3h[8:1]/8h[8:1],,,{8}26,7,7,68,68,{16}1x/7x-3[8:1],,,7x/2x-5[8:1],,,2x,,
{8},2,18,7,68,5,6/4z8[8:3],3,2,3,4,5,1xbw5[8:1],,1b,,
{16}3-8[8:1]/7-4[8:1],,,,37,,,,1h[8:1]/7h[8:1],,,3h[8:1]/5h[8:1],,,{8}26,1,1,28,28,{16}3x/1x-5[8:1],,,1x/4x-7[8:1],,,4x,,
{8},8,7,6,24,3,57,6,1pp4[4:1]/5pp8[4:1],,,,,,26,,
{8}1,1w5[8:1]b,,{4}1b,3^8[8:1]/7^4[8:1],37,{8}6,25,3,48,7,36,5,
{8}3-7[8:1],5-1[8:1],3,5,4-8[8:1],6-1[8:1],4,6,,2,2,8/3pp1[4:1],3/8h[4:1],,,,
{8}8,8w4[8:1]b,,{4}8b,2^5[8:1]/6^1[8:1],26,{8}8,37,2,18,7,68,5,
{16}4-1[8:1]*-7[8:1],,,,4,,,,2/8h[16:3],,,7h[16:3],,,{8}6,34,34,56,56,3b-8[8:1]b/7b-4[8:1]b,,3b/7bpp3[4:3],,
{4}4xh[4:6],,,,3,3,3-7[8:1]*-8[8:1],,
{8}16,,6,6,4,4,{16}6-3[8:1],5,,5,6,,,,{8}2,2,4,4,{16}2-5[8:1],3,,3,
{8}2,,7,7,5,5,{16}7-4[8:1],6,,6,7,,,,{8}3x/4x,5,34,2,34,5,
{16}26,,,,7,8,7,8,7,,1,,{12}7x-3[8:1],8x,8x,7x,,,{16}2,1,2,1,2,1,2,1,3-6[8:1],8,3,8,
{16}3,,,,7,5,7,5,7,,4,,{12}6x-4[8:1],5x,5x,6x,,,{8}3x/4x,5,34,2,4/3^1[8:1],5,
{8},
E


Re:MASTER


名前:
コメント:

タグ:

+ タグ編集
  • タグ:
最終更新:2026年09月13日 09:43