アットウィキロゴ

ジェヘナ

アーティスト wotaku

BPM BASIC ADVANCED EXPERT MASTER Re:MASTER
128 2 6 9+ 13 -

EXPERT MASTER Re:MASTER
譜面制作者 はっぴー みそかつ侍 -

BASIC


ADVANCED


EXPERT


MASTER

(128)
{1},
{8}2h[4:1],4,6h[4:1],4,2,{24}34,,5,4,,,{8}57,8h[4:1],1,2h[4:1],1,8,{24}17,,6,5,,,45,,,
{8}2h[4:1],3,5h[4:1],4,2,{24}34,,5,4,,,{8}57,8,46,1,35,56,47,38,,
{8}7h[4:1],5,3h[4:1],5,7,{24}56,,4,5,,,{8}24,1h[4:1],8,7h[4:1],8,1,{24}28,,3,4,,,45,,,
{8}7h[4:1],6,4h[4:1],5,7,{24}56,,4,5,,,{8}24,1,35,8,46,34,25,16,,
{8}2-4[8:1],,4,5,5-3[8:1],,3,2,2,23,23,24,2v5[8:1]/4h[4:1],,,,
{8}6-4[8:1],,4,3,3-5[8:1],,5,6,6,56,46,36,6/2^8[8:1],26,,,
{8}7-5[8:1],,5,4,4-6[8:1],,6,7,7,67,67,57,7/4h[4:1],5,6h[4:1],5,
{8}3,D2/E2,D1/E1,D8/E8,{24}B6,,B5,B4,,B3,,,,8,,,17,,,6,,6h[8:1],,,5h[8:1],,,{12}4-7V53[24:7],,,,,{8}2,
{8}2,14,5,36,{24}2,,2,4,,4,3,,3,5,,,{8}7,46,2,35,{24}6,,6,4,,4,5,,5,3,,,
{8}2,16,8,57,{24}4,,4,6,,6,5,,5,7,,,{8}8-4[8:1],4,2qq6[8:3],2,5,5h[4:1],,,
{8}8,57,3,46,{24}7,,7,5,,5,6,,6,4,,,{8}2,15,7,48,{24}3,,3,5,,5,4,,4,6,,,
{8}37,{24}2,,2,4,,4,3,,3,5,,5,4,,4,6,,6,5,,5,7h[4:1],,,{8}6,4h[4:1],5,6,57,4b/8b,,
{2}1>6[4:1],{24}7q4[24:5],,,{3},{2}2q5[24:6],{24}6h[24:7],{4},{12}5x,4x,3x,
{24}2xpp4[24:5],,,,,,,,,,,6v8[24:4],{4},{8}1,2,3^5[8:1]/7^1[8:1],,,,48,,8-6[8:1],1-5[8:1],
{8}8-4[8:1],1,8,{24}3,,3qq5[24:7],{4},{8}5,6,7pp1[8:1]*qq5[8:1],,,,2b/6b,,8p4[8:1],57,
{8}4,,1q5[8:1],24,5,,1-4[8:1]/8-5[8:1],27,,,{24}3,,5,2,,4,1b,,,,{3},
{8}3/4>8[8:1],{24}6,,4xb/6xh[24:4],,,,,,,7/5^7[24:2],,,3,,3x/5xb,,,1,8x,,,{8}12,34,56,{12}47,4/7h[24:4],,{8}8,16,25,
{8}3/4>8[8:1],{24}6,,4xb/6xh[24:4],,,,,,,7/5^7[8:1],,,3,,3x/5xb,,,1,8x,,,{8}24,45,57,{24}4,,5,1b,,,,,,28,,,37,,,
{8}5/4h[24:5],{12}3,{8}3h[8:1],2,{6}4/1s5[24:7],{8}5,6,7,8h[8:1],{12}5,{24}5>1[8:1]*<1[8:1],,,37,,,5b,,,,,,,18,,,27,,,
{8}3/6h[24:8],{12}5,{8}5V71[24:4],4,{6}3,{8}2,2/8-5[8:1],17,{24}8/6pp3[8:3],,,,,6x/4xh[24:10],{2},{24}4,,4,5,,5,
{24}1x,2,3,7x,6,5,2x,3,4,8x,7,6,1b,,,,,,,,,,,,6/3>4[8:3],,,,,Cf,{4},{2},
{24}3,,3,5,,45,,,6,5,,,{8}7h[8:3],B7/E7,B5/E5,B3/E4,{24}2,,2,1,,1,8,,8,7,,7,8h[8:1],,,6,,6,5,,5,4,,4,
{8}3,12,34,56,{12}78,{8}78,16,25,2x/5x,{24}3,4,,3h[8:1],,,5,4,,5h[8:1],,,2,3,,2h[8:1],,,6,5,,6h[8:1],
{24},,4,5,,5,3,,3,6,,6,4,,4,7,,7,5,,5,8<4[8:1],,,,,4x,3x,2x,1x,8x,,,,,,3,,3,4,,4,5,,5,6,,6,
{24}7,,7,8,,8,1,,1,2,,2,3,,3,4,,4,5,,5,7,,7b,{1},
{8}3^5[4:1],,,,,6h[24:5],,,6^4[4:1],,,,,3h[24:5],,,
{8}2^5[4:1],,,,,{24}7q1[24:21],,,,,{6}5p3[24:16]b,{1},
{4}2,2,36,36,47,47,58,58,
{8}7,7,5,5,6,6,4,4,35,35,46,46,{24}7,,7,3,,3,8,,8,4,,,
{4}1xp5[8:1]/5xp1[8:1],{24}1xb/5xb,Cf,,,,,{3}3xbh[24:5]/7xbh[24:5],{24}8,1,,,{8}12,34,56,{12}47,4/7h[24:4],,{8}8,16,25,
{8}3>7[8:1]/4p6[8:1],{24}5,,3xb/4xb,,,,,,,5q3[8:1]/6<2[8:1],,,4,,5xb/6xb,{4},{8}2b/4b,4b/5b,5b/7b,{24}4b,,5b,1xb,,,,,,28,,,37,,,
{8}46,{12}5,{24}5>1[8:1]*<1[8:1],,,37,,,5b,{4},{8}18,26,34,{12}17,{24}1-5[8:1]/7-3[8:1],,,35,,,1b/7b,,,,,,,18,,,27,,,
{8}6/3h[24:8],{12}4,{24}4V28[24:4],,,5,,,6h[24:4],,,,,,,7/1-4[8:1],,,28,,,1/3qq6[8:3],,,,,3x/5xh[24:10],{2},{24}5,,5,4,,4,
{24}8x,7,6,2x,3,4,7x,6,5,1x,2,3,8b,,,,{3},{8}7h[4:1],1,4h[4:1],1,7,{24}57,,6,4,,,35,,,
{8}2h[4:1],8,5h[4:1],8,2,{24}24,,3,5,,,46,,,7/5^8q1^4[2:1],,,3,,5x/3xh[24:13],{4},{2},
{8}2h[4:1],3,5h[4:1],4,2,{24}12,,8,1,,,78,,,6/1>7[8:3],,,3,,1x/3xh[24:10],{2},{24}3p6[8:1]/7^2[8:1],,,26,,,
{8}3xb/7xb,,,35,3/5h[4:1],8,3h[4:1],1,5h[24:8],{12}4,{24}4V68[24:4],,,3,,,2h[24:4],,,,,,,7/1-5[8:1],,,28,,,
{24}1/3q7q5[8:3],,,,,3x/6xh[24:10],{2},{24}4,,4,5,,5,3x,2,1,7x,6,5,2x,3,4,6x,7,8,5b,,,,{3},
{24}48,,,,,3qq4^3V17[24:31]b/7qq8^7V53[24:31],{4},{2},{1},
{4}2xb/7xb,
E


Re:MASTER


名前:
コメント:

タグ:

+ タグ編集
  • タグ:
最終更新:2026年09月23日 15:47