アットウィキロゴ

Bad Apple!! feat.nomico ~五十嵐 撫子 Ver.~

アーティスト Masayoshi Minoshima [covered by 五十嵐 撫子(CV:花井 美春)]

BPM BASIC ADVANCED EXPERT MASTER Re:MASTER
141 3 6 10+ 13 -

EXPERT MASTER Re:MASTER
譜面制作者 鳩ホルダー はっぴー -

BASIC


ADVANCED


EXPERT


MASTER

(141)
{4}1b/7b,3/5,3/5,{16}4x,4x,4x,4x,{4}4x,3/5,3/5,{8}3,4,{4}5,4/6,4/6,{16}5x,5x,5x,5x,{4}5x,4/6,4/6,{8}4/6,7,
{4}8b/2b,6/4,6/4,{16}5,5,5,5,{4}5,6/4,6/4,{8}6,5,{4}4b,5/3,5/3,{16}4,4,4,4,{4}4>6[8:3],5,5-8[8:1],5x,

{16}
1/7,,6,5,,5,7,,8/2,,3,4,,4,2,,
1/7,,6,5,,5,7,,8/2h[8:1],,4,,6h[8:1],,4,,
8/2,,3,4,,4,2,,1/7,,6,5,,5,7,,
8/2,,3,4,,4,2,,1/7h[8:1],,5,,3h[8:1],,5,,
4/6,,7,8,,8,6,,5/3,,2,1,,1,3,,
4/6,,7,8,,8,6,,5/2h[8:1],,4,,7h[8:1],,1,,
5/3,,2,1,,1,3,,4/6,,7,8,,8,6,,
5/3,,2,1,,1,3,,{12}4/6,4/6,4/6,3/5,3/5,3/5,

{4}6/2h[4:7],4,4,4,4,4qq5[8:3],,,3/7h[4:6],5,5,4q5<3[4:2],,,,4/6,
{8}5,6,{16}7/1h[16:3],,,4,
{8}4,3,{16}2/8h[16:3],,,5,
{8}5,6,{16}7/1h[16:3],,,4,
{8}4,3,{16}2/6h[16:3],,,5,
{8}5,6,{16}7/1h[16:3],,,4,
{8}4,3,{16}2/8h[16:3],,,5,
{4}5-1[8:1],5/6-2[8:1],6/1-5[8:1],1/8b,

{8}7,7h[8:1],5,5h[8:1],8,8h[8:1],{16}3,,3,4,
{8}2,2h[8:1],8,8h[8:1],5,5,{4}3-1[8:1]/7v4[8:1],3/7,
{8}1,1h[8:1],4,4,{4}2pp4[8:1]/6^8[8:1],2/6,
7qq5[8:1]/3^1[8:1],7/3,
2-7[8:1]/6>3[8:1],2/6,
{8}4,4h[8:1],1,1h[8:1],{16}6,,6,5,
{8}7,7h[8:1],1,1h[8:1],4,4,{4}2v5[8:1]/6-8[8:1],2/6,
{8}7,7h[8:1],3,3h[8:1],
{4}4-1[8:1],6/4-7[8:1],2/4-1[8:1],4/8,2b/7b,

{8}1>6[4:1],1,6,7,{16}8,,8,1,,3,4,,
{8}8<4[4:1],8,3,2,{16}1,,1,8,,6,5,,
{8}3>7[4:1],3,7,6,{16}5,,2,4,,7,5,,
{8}6<2[4:1],6,2,3,{4}4-1[8:1]*-7[8:1],4x,
{8}8<3[4:1],8,3,2,{16}1,,1,8,,6,5,,
{8}1>5[4:1],1,6,7,{16}8,,8,1,,3,4,,
{8}6<2[4:1],6,2,3,{16}4,,7,5,,2,4,,
{8}3>7[4:1],3,7,6,5,,3/7,8,

{8}2-8[8:1],2,5/2-4[8:1],6,{16}7,,8,8,5,6,4h[8:1],,
{8}7-1[8:1],7,4/7-5[8:1],3,{16}2,,1,1,4,3,5h[8:1],,
{8}1-3[8:1],1,5/1-5[8:1],6,{16}7,,8,8,5,6,4h[8:1],,
{8}7-1[8:1],7,3p7[8:1],3,5,,4/6,4/6,
{8}7-1[8:1],7,4/7-5[8:1],3,{16}2,,1,1,4,3,5h[8:1],,
{8}2-8[8:1],2,5/2-4[8:1],6,{16}7,,8,8,5,6,4h[8:1],,
{8}8-6[8:1],8,4/8-4[8:1],3,{16}2,,1,1,4,3,5,,
{8}1-5[8:1],8-4[8:1]b,1,8,{16}2b,,,6x/4x-1[16:3],,,8x,,

{8}8xb,,,{16}1,1,{8}8,,4/6,{16}5,5,
{8}4,3,,{16}2,2,{8}8,,3/5,{16}4,4,
{8}4-1[8:1],,,{16}8,8,{8}1,,3,{16}2,2,
{8}4,5,,{16}6,6,5,,,3/4,,,2,4,
{8}1b,,4/6,{16}5,5,{8}5-8[8:1],,,{16}1,1,{8}8,7,,{16}6,6,{8}4,,3/5,{16}4,4,{8}4-1[8:1],,,{16}7,7,{8}8h[4:1],,1h[4:1],,
2,1/2,,{16}3,3,4,,6,6,5,,1,1,

{8}
8h[4:3],E1,E8,E7,E6,,
3,2,1h[4:3],E1,E2,E3,E4,,
4,4,5h[4:3],E4,E5,E6,E7,,
2,3,4h[4:3],E6,E5,E4,E3,,
8<3[2:1],8,E5,E6,E7,E8,E1,,
1>6[2:1],1,E5,E4,E3,E2,E1,,2x/7x,,
1/8,1/8,2/7,2/7,3/6,3/6,4/5v8^3[8:3],4/5,{4}5/4^7[8:1],,,E7/B6/B5/E5f/B4/B3/E3/E6/A6/E4/A3,

{8}1^3[8:1],1,6/1^7[8:1],5,
{16}4,,5,5,3,4,2h[8:1],,
{8}8^6[8:1],8,3/8^2[8:1],4,
{16}5,,4,4,6,5,7h[8:1],,
{8}3^5[8:1],3,8/3^1[8:1],7,
{16}6,,5,5,3,4,2h[8:1],,
{8}6^4[8:1],6,1/6^8[8:1],2,{4}3,2/7,
{8}8^5[8:1],8,3/8v3[8:1],4,{16}5,,4,4,6,5,7h[8:1],,
{8}1^4[8:1],1,6/1v6[8:1],5,{16}4,,5,5,3,4,2h[8:1],,
{8}6^4[8:1],6,1/6v1[8:1],2,{16}3,,4,4,6,5,7h[8:1],,
{8}3^5[8:1],3,8,8,1b/7b,,

{4}7-4[8:1]/8-3[8:1],7/8,2/1-6[8:1],{8}1/4,5,
{4}7^4[8:1]/8p3[8:1],7/8,2/1v4[8:1],{8}1/3,3,
{4}2-5[8:1]/1-6[8:1],2/1,7/8-3[8:1],{8}8/5,4,
{4}2^5[8:1]/1q6[8:1],2/1,7/8v5[8:1],{8}8/6,6,7/8,8/1,
{8}1/2,,2/4,3,5/7,{16}6,6,{8}5,4,
{8}3/1,2,8/6,7,3/1,{16}2,2,{8}1,8,
7/5,5/4,4/2,1/8,7b/5b,5b/4b,4b/2b,1b/8b,
{4},3-1[8:1]/5-7[8:1],3xb/5xb,{16}8,8,8,8,
{4}6bxh[8:31]/2bx>1[8:10]b,,,,,,,,
{4}B8/B1/Ch[8:15],,,,,,,,,
E

Re:MASTER


名前:
コメント:

タグ:

+ タグ編集
  • タグ:
最終更新:2026年08月11日 00:53