アットウィキロゴ

ツクヨミステップ

アーティスト ユリイ・カノン feat.nameless

BPM BASIC ADVANCED EXPERT MASTER Re:MASTER
172 4 7+ 10+ 13 -

EXPERT MASTER Re:MASTER
譜面制作者 はっぴー じゃこレモン -

BASIC


ADVANCED


EXPERT


MASTER

(172){16}
5xh[16:3]/6x,,,4h[16:3],,,3,,2,,2,,3,,3,,4h[16:3],,,5h[16:3],,,6,,7,,7,,6,,6,,
5h[16:3],,,4h[16:3],,,3,,2,,2,,3,,3,,4h[16:3],,,5h[16:3],,,6,,7,,7,,6,,6,,
5xh[16:3]/7x,,,4h[16:3],,,3,,2,,3,,4,,3,,4h[16:3],,,5h[16:3],,,6,,7,,6,,5,,6,,
5h[16:3],,,4h[16:3],,,3,,2,,3,,4,,3,,4h[16:3],,,5h[16:3],{8},6,7^5[8:1],,,,

2/5x,3,47,6h[2:1],,{16}E1,E2,E3,E4,E5,,47,,6,,25,,3,,,,6,5,6,,3,4,
3,,6,,25,,3h[2:1],,,,E1,E8,E7,E6,E5,,25,,3,,47,,6,,,,4,5,3b,,,,
47,,6,,25,,3h[2:1],,,,E1,E8,E7,E6,E5,,25,,3,,47,,6,,,,3,4,3,,6,5,
6,,3,,47,,6h[2:1],,,,E1,E2,E3,E4,E5,,47,,6,,25,,3,,,,8,1,{4}2x/7x,

3h[4:7]/5,5,6,6,5,4,2-5[8:1],,
4/6h[4:7],4,3,3,4,5,7-4[8:1],,
3h[4:7]/4,4,6,6,4^2[8:1],,4^6[8:1],,
5/6h[2:3],5,3,3,5,7,5^3[8:1]*^7[8:1],,

2b/8b,{16}35,,4/6h[2:1],,,,8,1,2,3,4,,7,,6,,25,,3,,,,4,6,4,,7,5,
7,,6,,25,,3h[2:1],,,,1,8,7,6,5,,2,,3,,47,,6,,,,2,1,{8}3x/8x,,

2h[4:1],4,5h[4:1],3,2h[4:1],4,5h[4:1],3,2h[4:1],3,5,4,2v7[8:1]/4v7[8:1],,,,
7h[4:1],5,4h[4:1],6,7h[4:1],5,4h[4:1],6,7h[4:1],6,4,5,5-1[8:1]/7-3[8:1],,,,
2h[4:1],4,6h[4:1],4,2h[4:1],4,6h[4:1],4,2h[4:1],4,6,4,2^5[8:1]*^7[8:1]/6,,,,
7h[4:1],5,3h[4:1],5,7h[4:1],5,3,5,46,57,46,35,2b/6b,,,,

1-4[8:1]/5h[4:1],,1,6,7,8,1,2,38,,E2/B1/B2,,47,,E6/B5/B6,,
4h[4:1]/8-5[8:1],,8,3,2,1,8,7,16,,E8/B7/B8,,25,,E4/B3/B4,,
1-4[8:1]/5h[4:1],,1,6,7,8,1,2,38,,E2/B1/B2,,C/E4/E8,,E6/B5/B6,,
{16}3,4,3,4,3,4,3,4,2,5,2,5,2,5,2,5,{4}2x-5[8:1]*-7[8:1],2x,4b/8b,,

{16}1x-5[8:1]/7x,,,8,1,,7,,3x-8[8:1]/5x,,4,,3b/5,,,,7x/8x,,,6,5,,47,,4/7^4[8:1],,,,,,,,
2,1,,2,1,,35,,4/6-1[8:1],,5,,4/6b,,,,3/8-5[8:1],,,2,8-4[8:1],,1,,78,,,,35,,,,
2x/8x-4[8:1],,,1,8,,2,,4x/6x-1[8:1],,5,,4/6b,,,,1x/2x,,,3,4,,25,,2>6[8:1]/5,,,,,,,,
8h[16:3],,,2h[16:3],,,4,,4^1[8:1]*^7[8:1],,,,,,,,26,,7,8,7,,2,1,2,,7,8,7,,36,,
2x/8x-4[8:1],,,1,8,,2,,4x/6x-1[8:1],,5,,4/6b,,,,1x/2x,,,3,4,,25,,2^5[8:1]/5,,,,,,,,
7,8,,7,8,,46,,3-8[8:1]/5,,4,,3b/5,,,,1-4[8:1]/6,,,7,1-5[8:1],,8,,12,,,,46,,,,
1x-5[8:1]/7x,,,8,1,,7,,3-8[8:1]/5x,,4,,3b/5,,,,7x/8x,,,6,5,,47,,4/7<3[8:1],,,,,,,,
1h[16:3],,,7h[16:3],,,5,,5^2[8:1]*^8[8:1],,,,,,,,37,,2,1,2,,7,8,7,,2,1,2,,45,,
{4}6h[4:3]/Ch[4:3],,,,2h[4:1]/8h[4:1],,36,E5/B3/B4/B5/B6,

{16}2x/7x,,1,8,1,,1,8,1,,1,6,1,,1,4,1,,1,3,1,,1,2>6[16:3],1h[4:1],,,,,,,,
2x/7x,,8,1,8,,8,1,8,,8,3,8,,8,5,8,,8,6,8,,8,7<3[16:3],8h[4:1],,,,,,,,
1x/6x,,8,7,8,,8,6,8,,8,5,8,,8,4,8,,8,3,8,,8,2>6[16:3],8h[4:1],,,,,,,,
3x/8x,,1,2,1,,1,3,1,,1,4,1,,1,5,1,,1,6,1,,1,7,1,,,,36,,,,
5x,4,5,4,6,3,6,3,5,6,7,8,4,3,2,1,7x,8,7,8,6,1,6,1,7,6,5,4,8,1,2,3,
6x,5,6,5,7,4,7,4,6,7,8,1,5,4,3,2,{4}1x/7x,,,2q3[2:1],

C,,,7p6[2:1],C,,,1p8[2:1],
C,,,2/7-3[8:1],1-5[8:1]/7b,1b/5b,3b/7b,{16}6,4,7,3,
8x-4[8:1],,,1,8,,2,,4x/6x-1[8:1],,5,,4/6b,,,,1x/2x,,,3,4,,25,,2>6[8:1]/5,,,,,,,,
7h[16:3],,,1h[16:3],,,3,,3^6[8:1]*^8[8:1],,,,,,,,15,,6,8,6,,3,1,3,,6,8,6,,36,,
2x/8x-4[8:1],,,1,8,,2,,4x/6x-1[8:1],,5,,4/6b,,,,1x/2x,,,3,4,,25,,2>6[8:1]/5,,,,,,,,
7,8,,7,8,,46,,3-8[8:1]/5,,4,,3b/5,,,,1^4[8:1]/6,,,7,1-5[8:1],,8,,12,,,,46,,,,
1x-5[8:1]/7x,,,8,1,,7,,3x-8[8:1]/5x,,4,,3b/5,,,,7x/8x,,,6,5,,47,,4/7<3[8:1],,,,,,,,
2h[16:3],,,8h[16:3],,,6,,6^1[8:1]*^3[8:1],,,,,,,,48,,3,1,3,,6,8,6,,3,1,3,,45,,
{2}6h[4:3]/Ch[4:3],,2h[4:1]/8h[4:1],4^6[8:1]/6^8[8:1],

{16}5x/7x,,6,,24,,3h[2:1],,,,2,1,8,7,6,5,24,,3,,57,,6,,,,7,8,6,,2,1,
3,,4,,57,,6h[2:1],,,,7,8,1,2,3,4,57,,6,,24,,3,,,,5,4,6b,,,,
2x/4x,,3,,57,,6h[2:1],,,,7,8,1,2,3,4,57,,6,,24,,3,,,,2,1,3,,7,8,
6,,5,,24,,3h[2:1],,,,2,1,8,7,6,5,24,,3,,57,,6,,,,4,5,3,6,2,7,{1}1b,E

Re:MASTER


名前:
コメント:

タグ:

+ タグ編集
  • タグ:
最終更新:2026年05月16日 16:44