BASIC
ADVANCED
EXPERT
MASTER
(240){1},
{8}2h[8:5]/8h[8:5],,,,,,,37,,37,,37,,1,1,,
8h[8:5]/Ch[8:5],,,,,,,1x/7x,,1x/7x,,1x/7x,,8,8h[1:1],,
1b,,,,5,,5,,4h[4:1]/7h[4:1],,,2h[4:1]/5h[4:1],{4},46,
3-8[8:1],5,6-1[8:1],4,3-8[8:1],5,1x/4x,1x/4x,
6-1[8:1],4,3-8[8:1],5,6-1[8:1],4z8[8:3],8x,,
7h[1:1],5,5,4,2h[1:1],4,4,5pp4[2:1],
,,{8},1h[4:1],,8,,27,27,,56,,8b,,
2,2,4,,46,,7,7,5,,46,,7,7,1,,
35,,2,2,8,,3,3,5,,6,6,4qq3[8:3],,5,,
6,6,,5,{4}5,4-1[4:1]b/5-8[4:1]b,,,1x/8x,27,
27,3bh[8:1]/5bh[8:1],4bh[8:1]/6bh[8:1],3bh[8:1]/5bh[8:1],4bh[8:1]/7bh[8:1],2bh[8:1]/5bh[8:1],3b/6b,1b/8b,
{8}3,3,5,,7,7,{4}5,35,4V28[4:1]*V68[4:1],,,
7x/8x,56,34,34,2x/4x,5x/7x,1x/3x,6x/8x,
3h[8:1]/8h[8:1],1h[8:1]/6h[8:1],3h[8:1]/8h[8:1],3h[8:1]/8h[8:1],1h[8:1]/6h[8:1],3h[8:1]/8h[8:1],16,{8}16,27,
{2}3h[8:11]/8h[8:11],,,{8},47,{4}4/7-2[8:1],
2-4-1-5-8-6[8:5],,,,3x,46,2/8<4[4:1],4>8[4:1],
8,4,4,35,A6f/E6/E7/B6,A1/A8/E1f/B1/B8,A3f/E3/E4/B3,,
6v1[8:1],3,2v5[8:1],8,6v3[8:1],4,2,2,
1-6[8:1]/2-5[8:1],,7-4[8:1]/8-3[8:1],,2-4[8:1]/8-5[8:1],,3b/7b,,
2h[8:1]/8h[8:1],1h[8:1]/7h[8:1],2h[8:1]/8h[8:1],1h[8:1]/7h[8:1],2h[8:1]/8h[8:1],1h[8:1]/7h[8:1],{8}28,28,{4}28,
4/7b,5/7b,4/7b,5/8bw4[4:1]b,A8f,,{8}2x/6x,1bx,{4}1bx,
A3/A5/E4/E5/B4,,A4/A6/E5/E6/B5,,A2/A8/E1/E2/B1,,A1/A7/E1/E8/B8,,
2h[8:1]/5h[8:1],4h[8:1]/7h[8:1],2h[8:1]/5h[8:1],4-1[8:1]/7h[8:1],6,{12}6x,5x,4x,{8}3x,,E1,,
7-5[8:1],7,1-3[8:1],1,7^5[8:1],7,1^3[8:1],1,7-5[8:1],7,1-3[8:1],1,8,,17,,
3-1[8:1],3,5-7[8:1],5,3^1[8:1],3,5^7[8:1],5,3-1[8:1],3,5-7[8:1],5,4,,3x^8[8:1]/5,,
4,,5,5,,4/6-3[8:1],,2-7[8:1],,5x,{4}5x,6,7-5[8:1]/8-4[8:1],
7x/8x,1-5[8:1]/2-4[8:1],1x/2x,7-5[8:1]/8-4[8:1],7x/8x,12,3b/8b,2,
{8}1-3[8:1],1,7-5[8:1],7,1^3[8:1],1,7^5[8:1],7,1-3[8:1],1,7-5[8:1],7,8,,17,,
5-7[8:1],5,3-1[8:1],3,5^7[8:1],5,3^1[8:1],3,5-7[8:1],5,3-1[8:1],3,4,,6x-3-7-2[2:1],,
Cf,,,,,1x,1x,,3h[4:1]/5h[4:1],,,4h[4:1]/6h[4:1],{4},46,
3b/7b-4[8:1],4,3-8[8:1],5,6-1[8:1],4,5x/8x,5x/8x,
3-8[8:1],5,6-1[8:1],4,3-8[8:1],5v7-1[8:3],1x,,
2h[4:1],4,3h[4:1]/4,5,7h[4:1],5,5/6h[4:1],4,
3^5[8:1],{8}8,8-4[8:1],,1h[4:1],,5,,37,{4}37,46,2b,
8qq8[4:1],,,1-5^4-2[2:1],,,8v7-5[8:3],,
,1pp1[4:1]b,,,E6,E7,E8,1-5[8:1]/8-4[8:1],
,{8},36,3/6h[4:1],,5,,47,,,{16}E6,E5,{4}E4,2x,
1h[8:1]/2h[8:1],7h[8:1]/8h[8:1],5h[8:1]/6h[8:1],3h[8:1]/4h[8:1],3h[8:1]/5h[8:1],4h[8:1]/6h[8:1],3/7-4[8:1],1b/7b,
2-6[8:1],{8}6,7,8-4[8:1],,4,3,2-6[8:1],,6,7h[4:1],,5,5,,
1-5[8:1],,5,6,7-3[8:1],,3,2h[4:1],,4,4,,6-2[8:1],,2,1h[4:1],
,4,{4}4,25,4>5[2:1]/7,Cf,,,18,
3h[8:11]/6h[8:11],,,,,,{8},25,{4}2-7[8:1]/5,
7-5-8-4-1-3[8:5],,,,6x,35,1>5[4:1]b/7,5<1[4:1]b,
1,5,5,46,A2f/E2/E3/B2,A4/A5/E5f/B4/B5,A7f/E7/E8/B7,,
3v6[8:1],5,7v2[8:1],1,3v8[8:1],6,7,57,
35,1v4[8:1]/7v4[8:1],,26,45,3-8[8:1]/6-1[8:1],,,
3^1[8:1]/5,4,4/6^8[8:1],5,3^1[8:1]/5,4,4/6^8[8:1],5,
4h[8:1]/5h[8:1],12,4h[8:1]/5h[8:1],78,4h[8:1]/5h[8:1],12,4h[8:1]/5h[8:1],4x/5x,
A2/A4/E3/E4/B3,,A1/A3/E2/E3/B2,,A5/A7/E6/E7/B6,,A6/A8/E7/E8/B7,,
1>6[8:3],6,7h[2:1],,1h[4:1],{12}6,5,4,{8}3,,,,
2bx/5bxh[4:1],,3,3,2,2h[4:1],,4,,18,,5h[4:1]/7,,6,6,,
4h[4:1]/7,,6,6,7,7h[4:1],,5,,18,,2/4h[4:1],,3,{4}3,
2-7[4:1]/5,5,5,5,2-7[4:1]/5,5,5,18,
1h[4:1]/2h[4:1],,{8}7,7,{4}8,D3f/A3/E3,E5f/B4/B5,D7f/A6/E7,,
7-5[8:1]/8-4[8:1],7x/8x,7-5[8:1]/8-4[8:1],7x/8x,1-5[8:1]/2-4[8:1],1x/2x,12,3x/8x,
4-2[8:1]/6-8[8:1],4x/6x,3-1[8:1]/5-7[8:1],3x/5x,4-2[8:1]/6-8[8:1],4x/6x,35,2-7-1-5[2:1]b/6,
8b,,{8},7,7h[4:1],,5h[4:1],,3h[4:1],,1,,1>6[4:1],,
7x,,8,8,{4}8,57,24,46,7,7/Ch[4:5]/B3/B4,
8x^6[8:1],8x^2[8:1],8x^6[8:1],8x^2[8:1],8x^6[8:1],8x,2,2/Ch[4:5]/B5/B6,
1x^3[8:1],1x^7[8:1],1x^3[8:1],1x^7[8:1],1x^3[8:1],1x,18,18,
2b/4bh[8:1],3bh[8:1]/5b,2b/4bh[8:1],3bh[8:1]/5b,5b/6b,4/7-2[8:1]b,7b,3,
4-1[8:1]/5-8[8:1],,2x/7x,{8}3,5,{4}2V46[8:3]/6V82[8:3],,,,
4bh[8:1]/8bh[8:1],2bh[8:1]/5bh[8:1],4bh[8:1]/7bh[8:1],2bh[8:1]/4bh[8:1],5bh[8:1]/7bh[8:1],3bh[8:1]/5bh[8:1],2bh[8:1]/4bh[8:1],4b/6b,
{8}5x/6x,7x,5x/6x,7x,5x/6x,7x,5x/6x,7x,5x/6x,7x,5x/6x,7x,5x/6x,7x,8x-4[8:1],,
8b,,,,,4,4,,3h[4:1]/6h[4:1],,,45,,45,{4}36,
7x^4[8:1]/8x^3[8:1],,5xw1[8:1],,3x-8[8:1]/4x-7[8:1],,1x,3qq5[8:5]/6pp4[8:5],
,,,,4xh[4:1]/6xh[4:1],,3xh[4:5]/5x,,
4,4,4,4,34,2-8[8:1]/5,{8}4,5x,5x,,
6-1[8:1],,4,3,3-8[8:1],,5,6,6,,47,,5xh[8:1]/8xh[8:1],,5xh[8:1]/8xh[8:1],,
3-8[8:1],,5,6,6-1[8:1],,4,3,3-8[8:1],,5v6-8[8:3],,1x,,,,
2h[4:3],,1,,1,,8,,7,7,5,5,4,4,2qq5[2:1],,
5,,6,6,,7h[4:1],,3,,26,26,,1-3[8:1]/8-6[8:1],,,,
1b/2b,,1-5[4:1]b/7-2-4[4:1]b,,,,,{1}6b,,E
Re:MASTER
最終更新:2026年09月05日 20:20