アットウィキロゴ

深海少女〈でらっくす〉

アーティスト ゆうゆ

BPM BASIC ADVANCED EXPERT MASTER Re:MASTER
137 2 6 9 13 -

EXPERT MASTER Re:MASTER
譜面制作者 佑 ロシェ@ペンギン -

BASIC


ADVANCED


EXPERT


MASTER

(137){8}4h[4:1],,5,6,7h[4:1],,3,2,1h[2:1],,C,,{32}E5,D5,{16},{8},,2,2v5[4:1],,5,,7v4[4:1],,4,,2>5[4:1],,,,,,1,2,3-5[8:1],,7-5[8:1],,1-5[8:1],,,,8-6[8:1],,1-5[8:1],,2-4[8:1],,,{16}8,7,5/6,,4,,,,1,2,3/4,,5,,{4}3/6h[4:1],{32}E3,B3,B4,,,,,,E7,B6,B5,,,,,,E5,D5,,,,,,,{4}3/6,

{8}2x/4x,1,8,7,6h[4:1]/5-8[8:1],,,,7/5,8,1,2,3h[4:1]/4-1[8:1],,,3,4xv5[4:1],,8,7,6xq3[4:1],,8,1,2x<7[4:1],,8x-4[8:1]b,,,,2,3,4-8[8:1]/5h[4:1],,,5,3-8[8:1]/4h[4:1],,,4,2-8[8:1]/3h[4:1],,,3,4h[4:1]/8h[4:1],,,{16}1,2,{8}3xs7[4:1],,7xs3[4:1],,1,1,8xz4[2:1],,1,,2,,3,,,1/5,

{8}1x/5xh[4:1],2,3,4/6h[4:1],,7,5/8-4[8:1],,2h[4:1],,3,1h[4:1]/4,,8,2/7,,2/5,3,4-8[8:1],,1h[4:1],,7,,6h[4:1],5,4,3/5,2/4,,{16}3,4,3,4,2h[16:3],,,1h[16:3],,,8,,7/8-4[16:3],,,4-8[16:3],,,3,,2,,1,,2w6[8:1],,,,2,,,,4,5,4,,4/7,,6,6,5,,2/5,,3,3,4,,5/6,,7/8,,1/2,,3,4,3,4,3,4,{4}2x/5x,1-3-8[4:1],

{8}8x-3-7[4:1],7,6,5,4<8[4:1],,8p2[4:1],,2q8[4:1],,8p4[8:1],,2h[4:1],,3,2,1h[4:1],,2h[8:1],3h[8:1],4h[8:1],5h[8:1],6-4[8:1],,2-8[8:1],2,7-3[8:1],7,1,,8-6-1[4:1],,1x-6-2[4:1],2,3,4,5>1[4:1],,1q7[4:1],,7p1[4:1],,1q5[8:1],,7h[4:1],,6,7,8,,3/4,,5/6,,2/3,4,1/5,2/6,3/7,4/8,1<6[8:1]/5>2[8:1],,1x/5x,,{16}1bx/7bx,,3,4,3,,8bx/2bx,,6,5,6,,1bx/7bx,,3,4,3,,6,6/5,,3,3/4,,5,4,5,,1x,2,3,4,{1}5bs1[4:3],{8},D4,B3,E5,B6,D6,C,,

{8}5x/7x,8,1,2,3h[4:1]/4-1[8:1],,,,4/2,1,8,7,6h[4:1]/5-8[8:1],,,6,6h[4:1]/5-2[8:1],,5,7,8h[4:1]/2-5[8:1],,2,8,1/5,8/4,7/3,6/2,1-4[8:1]/5,,8,7,6/5,4,2/3,1,7w3[8:1]/8,,,,1/4<8[8:1],,4>8[8:1],,4,,5,{16}3,4,{8}2qq1[4:1],,4,5,6pp7[4:1],,5,4,3qq2[4:1],,4,5,6,,,4/8,

{8}4xh[4:1]/8x,7,6,5/3h[4:1],,2,1-5[8:1]b/4,,7h[4:1],,6,5/8h[4:1],,1,2/7,,4/7,6,5-1[8:1],,8h[4:1],,2,3,4/5,,3v1[8:1]/7v5[8:1],,,,,2/8,{16}3,5,3,5,4,6,4,6,3-6[16:3],3,,6p3[16:7],,,7,,7,,,8,,,1,,1,,,,4,5,4,,2/5,,3,3,4,,7/4,,6,6,5,,3/4,,1/2,,7/8,,6,5,6,5,6,5,{4}7x/4x,4-8[8:1],

{8}3x-1[8:1]/4x,3,5-7[8:1],5,4-8[8:1],,4/8,7,6>4[8:1],4>2[8:1],2-8[8:1]*<8[8:1],,,,7,6,4/5h[4:3],,6,7,8,1,2,3,1x<6[8:1]*-6[8:1]/4x,,1x>4[8:1]*-4[8:1],,1x,,5-1[8:1],,6x-8[8:1]/5x,6,4-2[8:1],4,5-1[8:1],,3v2[8:1],3,6v7[8:1],6,5-1[8:1],5,8x,,2,3,4,,5/6,,3/4,,6/7,5,4/8,3/7,2/6,1/5,4<7[8:1]/8>3[8:1],,4x/8x,,{16}2bx/8bx,,3,4,3,,7bx/1bx,,6,5,6,,2bx/8bx,,3,4,3,,6,5/6,,3,3/4,,8,1,7,2,6,3,5,4,

{8}5bpp8[2:1],1,2,3,4-1[8:1],,4,,7<4[8:1],,8,8>3[8:1],,5,6,4h[8:7]/7pp2<6[8:5],{1},{16}4/5,,1,2,3/4,,8,7,6-1[8:1]/5h[4:1],,,,6x,,,,{8}4-6[8:1]/3,3,3/4-7[8:1],3,3/4-8[8:1],3,3/4,3,5-3[8:1]/6,6,6/5-2[8:1],6,6/5-1[8:1],6,6/5,6,3/4,3,3/5,3,3/6,3,3/7,3,3/8,3/7,3/6,3/5,3/4w8[8:1]b,,4x,,{16}3b/7b,,2,2/4,,7,7/5,,3,3/4,,6,5/6,,4/5,,3/6,,6,5,7,4,8,3,1,2,1,2,3/8,,,,1x/5x,,2,4,3,,8x/4x,,7,5,6,,2x/5x,,1x/8x,,{8}1x/8x,8x/E2/D2,8x/E3/D3,8x/E4/D4,8b/E5/D5f,8b/E6/D6f,8b/E7/D7f,8b/E8/D8f,E

Re:MASTER


  • MASTER譜面を追加しました。修正等ありましたらよろしくお願いします。 -- Sugar (2026-05-31 14:25:53)
名前:
コメント:

タグ:

+ タグ編集
  • タグ:
最終更新:2026年05月31日 14:25