BASIC
ADVANCED
EXPERT
MASTER
(195){1},
{4}4,3q6[1:1]/5h[4:5],,,,,,,5,4h[4:5]/6p3[1:1],,,,,,,3,2p7[1:1]/4h[4:5],,,,,,,6,5h[2:3]/7q2[1:1],,,,,,8b,
7h[4:1],5,{8}6,6,57,8,,8,5/7-4[8:1],,4,3,3,,2h[4:1],,4,,3,3,24,1,,1,2-5[8:1]/4,,5,6,7,,7h[4:1],,5,,6,5,57,6,,6,5/7-1[8:1],,4,2,2,,3h[4:1],,4,,3,4,24,3,,3,2-5[8:1]/4,,5,6,7,,7h[4:1],,5h[4:1],,8,8,57,6,,6,5-2[8:1]/7,,8,1,1,,2h[4:1],,4h[4:1],,1,1,24,3,,3,2/4-7[8:1],,2,1,8,,7h[4:1],,5h[4:1],,8,8,57,6,,6,5-2[8:1]/7,,8,1,1,,3/4-7[8:1],,2-5[8:1],,8,8,7,57,,2,24,,45,36,{4}2b/7b,
3<6[4:1],,7p2[4:1],,1p8[2:1],,,{8}7,7h[8:3],,,5h[4:1],,4,4pp8[8:5],,4h[8:5],{4},,,37,6v1[4:1],,2v5[4:1],,4pp3[2:1],,,{8}2qq5[2:1],2h[8:5],{4},,,{8}7q1[2:1],7h[8:5],{4},,,28,1/7V58-2[2:1],,,{8}3,3v4-6[8:3],{4},,7h[4:1],5h[4:1],4h[4:1],2h[4:1],8<1[2:1],{8}1,1,{4},4,38,1>4[4:1]/6,4<7[4:1],7>2[4:1],2>5[4:1],5pp1[2:1],,,8,7>2[4:1],2>5[4:1],5<8[4:1],8>3[4:1],3pp7[2:1],,,{8}1,{16}2,8,{8}2,,
7b-5[8:1]/3b-5[8:1],,37,,6,6,5,4/7-3[8:1],,1,1,,24,{16}3,4,3,,6,5,{8}7<4[8:1]*>2[8:1],,7,,E5/B4,E3/B2,E7/B6,C,,8,8,,12,38,4b/7b,,6-4[8:1]/3-1[8:1],,36,,2,2,4,1-5[8:1]/5,,8,8h[4:1],,4,{16}7,5,6,,3,4,{8}2<7[8:1]*>5[8:1],,2,,E5/B5,E7/B7,E3/B3,Ch[8:3],,1,1,,8,17,2b/6b,,
3-6[8:1],,7h[4:1],,5,5,6,45,,3,3h[4:1],,4,3,25,,1/6-3[8:1],,2h[4:1],,4,4,3,45,,6,6h[4:1],,5,6,4b/7b,,3-5[8:1],,7h[4:1],,6,7,8,17,,2,2h[4:1],,1,2,38,,7-4[8:1],,2h[4:1],,3,2,1,28,,7,7h[4:1],,8,7,1b/6b,,7-5[8:1]/8,,1/7V16[8:3],,3,,4,4,,56,4/7<5-1[4:1],,3,,2,,1/2-4[8:1],,2V83[8:3]/8,,6,,5,5,,34,{4}2V48[4:1]/5,6,7,1-6[8:1]/6,5h[2:1],7,7,6h[4:1]/8h[4:1],,1h[4:1]/3h[4:1],,57,18,24,45,{16}27,,1,8,1,8,1,8,{32}1,2,3,4,5,6,7,8,{4}15,
3bx/4bx,2v5[8:1]/1<6[8:1],D2f/A1/A2,{8},3bx/4bx,,12,2v5[8:1]/1<6[8:1],,D2f/A1/A2,,,3/4V68b[16:3],,2,2-4b[8:1],,12,,37,3pp6[8:3]/7,,7,8,1,2,,1/5-1[8:1],,5/7-2[8:1],,3-6[8:1]/7,,38,,,17,,26,6-3[8:1]/2-7[8:1],,2b/6b,,,15,,2,2pp6[8:3],,6,,8,8V27-4[2:1],,5,5,,2,1b,,,23,,4<7[8:1]/1>4[8:1],,1b/4b,,,67,,58,8-4[8:1]/5-1[8:1],,5b/8b,,,2h[4:1],,4,5-7[8:1],5,1q5[8:1],1,8,8<5v3[8:3],,4,{4}4,1,4/8-3[8:1],6h[4:1],4-1[8:1],5h[4:1],8-3[8:1],4h[4:1],2-6[8:1],1h[4:1],5>1[4:1],1<5[4:1],5>1[4:1],1<5[4:1],5V31V75b[8:3],Cf,,{8}1,1,28,,
12,,4<7[8:1]/3v8[8:1],,D4f/A3/A4,,,12,,34,4<7[8:1]/3v8[8:1],,D4f/A3/A4,,,1V75[16:3]/2,,3,3-1[8:1],,34,,26,2qq7[8:3]/6,,6,5,4,3,,4-8[8:1]/8,,2<7[8:1]/4,,2x/6q3[8:1],,6/8x,,,48,,26,6q3[8:1]/2<7[8:1],,2b/6b,,,2x/4x<7[8:1],,1-5[8:1],1,6-1[8:1],6,4,4,58,,7h[8:1],5h[8:1],4h[8:1],2h[8:1],8bx,,,78,,6v1[8:1]/5>2[8:1],,D6f/A5/A6,,,78,,56,6<1b[8:1]/5>2b[8:1],,D6f/A5/A6,,,7h[4:1],,8,1-5[8:1]/6,1,7>2[8:1],7,4,4h[4:1],,3,12,56,{4}7/8w4[8:1],8,2qq7[8:3],,6pp1[8:3],,3qq5[8:3],,6,8<5[8:1],3>8[8:1]/8,3/6>3[8:1],16,{16}28,,28,,37,,8,4,8,4,8,4,{8}8b,{1}2b/6b,,,,,,,
E
Re:MASTER
最終更新:2026年07月04日 16:06