アットウィキロゴ

Endless, Sleepless Night〈でらっくす〉

アーティスト samfree feat.(V)・∀・(V)かにぱん。(A-ONE)

BPM BASIC ADVANCED EXPERT MASTER Re:MASTER
165 3 6 10+ 13 -

EXPERT MASTER Re:MASTER
譜面制作者 サファ太 Luxizhel -

BASIC


ADVANCED


EXPERT


MASTER

(165)3<6[2:1]/5h[4:5],,,,6,6,5/6,5/6,7<3[2:1]/4h[4:5],,,,3,3,4/2,1/8,{8}2,2,3/4,5,6,6,5/7,,8<4[4:1],,4>8[4:1],,8,,4,,7,7,5/6,4,3,3,2/4>4[2:1]*<4[2:1],,{4},,,3b/5b,{16}6,5,6,,7/8,,1,,2/8,,1-6[8:1],,,,2-5[8:1],,,,8h[4:1],,,,6,,6,,5/7,,,,4/5,,3,4,3,,1/2,,1/8,,7/8,,6-1[8:1],,,,5-2[8:1],,,,8,,,,7,,7-3[8:1],,6/8,,7,,,,1b,1,4,,2/5,,3,,4/6,,7>2[8:1],,,,5-1[8:1],,,,8,,,,2,,2,,3/4,,,,2/5,,3,4,2,,1/8,,7,,5/6,,4>1[8:1]/7,,,,6h[4:1],,,,8,,,,1/7,,1/7,,3/5,,2b/6b,,,,

{8}7-4[8:1]/8-4[8:1],7/8,,,2-5[8:1]/1-5[8:1],2/1,,,6h[8:1],5,3h[8:1],4,7h[8:1],5,4/8,,2>5[8:1]/1-5[8:1],2/1,,,7<4[8:1]/8-4[8:1],7/8,,,2h[8:1],4,7h[8:1],5,3h[8:1],1,4/8,,5b-1[8:1]/7b-5[8:1],5/7,,,4-8[8:1]/2-4[8:1],4/2,,,7h[8:1],5,3h[8:1],1,6h[8:1],1,3/7,,1>4[8:1],8,1<6[8:1],,1-4[8:1],,1-6[8:1],,1-5[8:1],,1,,2b/8b,,,,3pp6[8:5]/6,,7,,8,8,,1h[4:3],,6,,7,,8,1/7,,6qq3[8:5],,2,,1,1,,8h[4:3],,3,,2,,1,8/2,,
7pp2[8:5]/1,,2,,3,3,,4h[4:3],,2,,1,,8,2/6,,1,1h[8:1],3,3h[8:1],5,5h[8:1],7-3[8:1],,1b/7b,,,,1/7,6,2q6[8:1]/8,3,

{8}2b/8bv3[8:1]*p4[8:1],7,8,,2-6[8:1],4<1[4:1],2,4,,5,1-6[8:1]/5-2[8:1],,1/5,,3/7,,4-8[8:1]*-7[8:1],3/5,4,,1-5[8:1],6<3[4:1],1,6,,5,5w1[8:1],,5,,3/7,,1b-5[8:1]b/2b-6[8:1]b,3/8,1/2,,7-3[8:1],8-4[8:1],7,8,,6,5/6,7/8,1/2,3/4,2b/6b,,1q5[8:1]b*v6[8:1]b,2/8,1,,7-3[8:1],5>8[4:1],7,5,,4,4-7[8:1]/8-3[8:1],,4/8,,2/6,,3-8[8:1]/4-8[8:1],2/5,3/4,,1q5[8:1],7>4[4:1],1,7,,6,6w2[8:1],,6,,4/8,,5/6,7/8,1V35-7[8:3]/6,,5,,8,8,,1h[8:1],3h[8:1],4h[8:1],5h[8:1],6h[8:1],8b,,1>4[8:1]/5<8[8:1],4/8,1/5,,4xv1-3[2:1]/8xv5-7[2:1],1/5,,,,,,,2/6,2/6,{16}5,3,6,4,{1}8b,

{1}1v6-8v5[2:1]/8hx[4:7],{4}E6,E7,E8,C,{1}6-3-5-2[2:1]/1h[2:3],{4}E2,E3,E4,2/5,{8}3,4,2/5,3,4,3,2-8-3-7[2:1]/5,,{4}5,4,4,5/8,{8}6,5,7/4,6,5,6,5qq2[2:1]/7qq4[2:1],,{4},,,1b/5b,{16}7,8,7,,1/6,,2,4,2,4,3,,4/5,,5/6,,7,8,7,,2,1,2,,3<6[8:1]/8,,2/7,,3/8,,,,5/7,,6,5,6,,3,4,3,,1/2,,1/2,,3/8,,7,4,6,5,7,8,6-1[8:1],,{2}1-5[8:1]*-6[8:1]/5,{16}4x/7x,,6,5,7,,3,4,2,,6,5,7,,1/8,,2,3,4,5,8,7,6,5,2-5[8:1]/4-8[8:1],,1,,2b/4b,,,,4/7,,6,5,6,,3,4,3,4,2,,7/8,,1/6,,7,8,6,,2,4,3,5,4-8[8:1],6,5,,4/7,,,,7,1,7,,2/6,,3,5,4,,5/6,,7/8,,1/6,,2,5,3,4,2,1,3-8[8:1]b,,{2}4/8-4[8:1]*-3[8:1],{16}2/5,,3,4,2,,7,8,6,,1/5,,2/6,,3/7,,4/8,3,2,1,7/8,6,5,4,1w5[8:1]b/3,,1,,1,,,,3-8[8:1]/7-4[8:1],,4/8,,3/7,,,,1v4>1[2:1]b/5v8<5[2:1],,2/6,,{4},,,1/5,A6/B6/A2/B2/Cf,

{16}7,8,7,,1/6,,7,,3/8,,2-5[8:1],,,,1-6[8:1]/2,,,,1/4-8[8:1],,,,4/7,,7,,1/6,,,,3/4,,3,4,2,,1/8,,7,,5/6,,7>2[8:1],,,,7/5-1[8:1],,,,5/8h[4:1],,,,2,,3>8[8:1]/7<4[8:1],,1/5,,3/7,,,,1b,1,4,,2/5,,3,,7/4,,6<1[8:1],,,,5>2[8:1]/6,,,,5/8v3[8:1],,,,1/8,,2,,2-7[8:1],,,,2/4,,5,5,8,,1/6,,2,,3/7,,5-2[8:1]/8,,,,5/7-4[8:1],,,,7/8,,,,1/5,,{32}2,3,4,5,6,7,8,1,{4}2b/Cf,1<2[2:1],,,,3h[4:1],4h[4:1],5h[4:1],6h[4:1],{1}5p4[2:1],{4}6h[4:1],5h[4:1],4h[4:1],3b,E

Re:MASTER


  • MASTER譜面を追加しました。修正等ありましたらよろしくお願いします。 -- Sugar (2026-07-05 19:27:13)
名前:
コメント:

タグ:

+ タグ編集
  • タグ:
最終更新:2026年07月05日 19:27