アットウィキロゴ

骸骨楽団とリリア

アーティスト トーマ

BPM BASIC ADVANCED EXPERT MASTER Re:MASTER
260 3 7+ 11 13 -

EXPERT MASTER Re:MASTER
譜面制作者 サファ太 小鳥遊さん -

BASIC


ADVANCED


EXPERT

(260)
{2}4h[1:3],,,,5h[4:5],,,3x/6x,
{4}3,3,4,2,3/5,
{8}4,5,,5,4,,
{4}6,6,5,7,4/6,
{8}5,4,,4,5,,
{4}3,3,4,2,3/5,
{8}4,5,,5,4,,
{4}6,6,5,7,4/6,
{8}5,4,,4,5,,
{4}6/2h[8:13],,,4,,6,,7x,3xh[4:3]/7xh[4:3],,,,
{8}4x,5x,4x,5x,4x,,,,
{4}2,3/4,5,5/6,7,5/6,4,3/4,2,3/4,5,5/6,7,5/6,4,3/5,2,2h[4:1],4,4h[4:1],5,5h[4:1],7,8,1h[4:1]/8h[4:1],,
{2}5h[4:1]/7h[4:1],2h[4:1]/4h[4:1],3/6,
{4}7,5/6,4,3/4,2,3/4,5,5/6,7,5/6,4,3/4,2,3/4,5,4/6,7,7h[4:1],5,5h[4:1],4,4h[4:1],2,1,1h[4:1]/8h[4:1],,
{2}2h[4:1]/4h[4:1],5h[4:1]/7h[4:1],3/6,
{4}2,2,2>5[4:3],,6,6,7,,7,7,7<4[4:3],,3,3,2,,3,3,4/2h[1:1],,E1,C,E5,,6,6,5/7h[2:1],,E1,C,E5,,7,7,8/7<4[4:3],,2,2,1,,2,2,1/2>5[4:3],,6,6,7h[2:1],,
{2}5h[2:1],4h[2:1],2h[2:1],
{4}8,8x,2,2/4,5,3/5,4,4/7,8,1/8,1/8,2/7,3/6,4/5,3x/6x,,4/5,,3b/8b,7,4/8,7,3/8,7,3/8,2,1/6,2,1/5,2,1/6,2,1/6,7,4/8-5[4:1],,
{2}1-4[4:1],8-5[4:1],1,B3/B7/Cf,,B2/B6/Cf,,
{4}1b/6b,2,1/5,2,1/6,2,1/6,7,3/8,7,4/8,7,3/8,7,3/8,2,2h[4:1]/5h[4:1],,
{2}4h[4:1]/6h[4:1],3h[4:1]/5h[4:1],4h[4:1]/7h[4:1],6x/3xh[1:1],,
{8}5x,4x,5x,4x,5x,4x/5x,,3x/6xh[8:3],,,5x,,4/7,4/7,,6x/3xh[8:3],,,4,,2/5,2/5,,3x/7xh[8:3],,,
{4}8,5,3,2/5,1,
{8}2x/5x,2x/5x,,7x/3xh[8:3],,,4,,2/5,2/5,,2x/6xh[8:3],,,
{4}5,4x/7x,2x/5x,
{8}1x/8x,1x/8x,,5x/7x,,2/4,,1x,1x,,2/7,,4/5,4/5,,3x/7xh[8:3],,,8,,1/6,1/6,,7x/2xh[8:3],,,1,,3/8,3/8,,2x/6xh[8:3],,,
{4}5,6,7,1/8,1/2,
{8}3x/8x,3x/8x,,4xh[4:1]/6xh[4:1],,,4/6,,8,8,,1xh[4:1]/7xh[4:1],,,
{4}1/7,3/5,,
{1}3>8[4:3],7<4[4:3],3>8[4:3],
{2}7,4/6,2h[1:1],3,5h[1:1],4,E5,C,E2/E8,B4/B5,6>3[4:3],,2<7[4:3],,6>3[4:3],,2,3/5,
{4}6h[1:1],,,5,5h[1:1],,,4,4h[1:1],,,3,3h[2:1],,5h[2:1],,4,4h[4:7],,5,,5,,5,5h[1:2],4,,4,,4,,4,4x,,
{2}2x/4x,4x/5x,5x/7x,
{4}1x/8x,2x/7x,3x/6x,4x/5x,2x/7x,,4h[4:1]/5h[4:1],,4x/8x,7,5/8,7,4/8,7,4/8,3,1/5,2,1/4,2,1/5,2,1/5,6,4/8<5[4:1],,
{2}1>4[4:1],8<5[4:1],1,B3/B7/Cf,,B2/B6/Cf,,
{4}1b/5b,2,1/4,2,1/5,2,1/5,6,4/8,7,5/8,7,4/8,7,4/8,2,2h[4:1]/5h[4:1],,4,5,4h[4:1]/7h[4:1],,5,4,2h[4:1]/5h[4:1],,
{2}4h[4:1]/7h[4:1],1h[4:1]/6h[4:1],3h[4:1]/8h[4:1],
{4}8x,7,6,5,4,3,2,1,
{8}1>4[4:1],,,,,5<8[4:1],,,,4>1[4:1],,,
{4}8,8,1x,2,3,4,5,6,7,8,8<5[4:1],,4>1[4:1],,5<8[4:1],,1,2,6x/3h[2:3],,
{2}E5,E2,E8,2x/7h[2:3],E6,E1,E4,
{4}1x,2,7,6,4,3,5,6,
{32}4/6,,,,3xh[4:1],,,
{16}5xh[32:5],,,,,,,6xh[32:7],4xh[32:5],,,,,,,
{32}3h[32:7],,,
{2}5h[8:1],2b/6b,
E

MASTER


Re:MASTER


名前:
コメント:

タグ:

+ タグ編集
  • タグ:
最終更新:2026年06月28日 09:55