BASIC
ADVANCED
EXPERT
MASTER
(102)
{4}5/2h[4:1],4V85[4:1],,3,4/7h[4:1],5v4-1[4:1],,6,5/2h[4:1],4-8^5[4:1],,3,4/7h[4:1],5,4/5,2b/7b,
{8}3,3h[8:3],4,,4,4/5,5/6h[4:1],,5,4/5,4/3h[4:1],,4-1[8:1],4/5,6,,6,6h[8:3],5,,5,4/5,4/3h[4:1],,4,4/5,5/6h[4:1],,5-8[8:1],4/5,3,,
{4}1h[8:1]/8h[8:1],1h[8:1]/2h[8:1],1h[8:1]/8h[8:1],7h[8:1]/8h[8:1],5h[8:1]/6h[8:1],4h[8:1]/5h[8:1],3h[8:1]/4h[8:1],4/5,
{8}2-6[8:1]/8-4[8:1],2/8,,,1v4[8:1]/7v4[8:1],1/7,,,2/8,2/8,3/7,3/7,4/6,4/6,5^8[8:1],,
{4}4^1[8:1],8^5[8:1],1^4[8:1],5,
{8}4/6,7,8,1,2,3,4/5,6,5/7,3,2/4,6,5/7,3,2/4,6,6,4,4/5,,
{12}1x/8x,1x/8x,1x/8x,2b/7b,,,
{8}2-5[8:1],2,6-1[8:1],6,4-8[8:1],4,5,6,7,8,1s5[4:1],2,,,,,2-6[8:1],2,7-3[8:1],7,1-4[8:1],1,8-5[8:1],8,4,3,2,1,1^4[8:1]/8^5[8:1],1/8,,,7-4[8:1],7,3-8[8:1],3,5-1[8:1],5,4,3,2,1,8z4[4:1],7,,,,,7-3[8:1],7,2-6[8:1],2,8-5[8:1],8,1-4[8:1],1,5,6,7,8,1/8,1^4[8:1]/8^5[8:1],2x/7x,,,,4/6,,A6/A7/D7,B5/B6/B7,B2/B3/B4,A2/A3/D3,8,,3/5,,A2/A3/D3,B2/B3/B4,B5/B6/B7,A6/A7/D7,1,,4/6,,A6/A7/D7,B5/B6/B7,B2/B3/B4,A2/A3/D3,8,,3/5,,A2/A3/D3,B2/B3/B4,B5/B6/B7,A6/A7/D7,
{24}1h[24:5],,,,,8,8h[24:5],,,,,7,7h[24:5],,,,,6,6h[24:5],,,,,5,5h[24:5],,,,,4,4h[24:5],,,,,3,3,,,
{8}3/4,2/5,,3h[4:1],4,6h[4:1],5,2h[4:1],1,7h[4:1],8,2,,4/5,3/6,
{24}2/7,,1,8,,,
{4}3x/6x,
{24}8h[24:5],,,,,1,1h[24:5],,,,,2,2h[24:5],,,,,3,3h[24:5],,,,,4,4h[24:5],,,,,5,5h[24:5],,,,,6,6,,,,,,
{12}4x/7x,4/7,4/7,3x/6x,3/6,3/6,2x/5x,2/5,2/5,3h[8:1]/6h[8:1],,,
{8}4/5,,1/8,7,5/6,4,3/5,2,
{24}1,,1,8,,8,1,,,
{8}2,3/4,5,4/6,7,
{24}8,,8,1,,1,8h[2:1],,,,{3},
{12}1xb,2xb/7xb,4xb/5xb,3xb/6xb,,,
{8}4/7,3,5/2-5[8:1],1,7^4[8:1],8,3,3,2-6[8:1],1,7-4[8:1],8,
{12}3,3,3,2x/4x,,,
{8}5/3-6[8:1],2,7^4[8:1],8,2-5[8:1],1,6,6,7-4[8:1],8,2pp5[4:1],1,8h[4:1],,,,7-5[8:1]/8-4[8:1],1/6,7x/8x,,1-5[8:1]/2-4[8:1],3/8,1x/2x,,7-5[8:1]/8-4[8:1],1/6,7x/8x,,1-5[8:1]/2-4[8:1],3/8,1x/2x,,7,5,4/6,3/7,2,4,3/5,2/6,7,7,1>8[4:1],1,8b,,,1xbh[4:1],,8b,3/7,3/7,6,5/7,3,2/4,1-4[8:1],2,5-8[8:1],6,4-1[8:1],3,8x,,1/8,7,2/6,2/6,3,2/4,6,5/7,8,8-4[8:1],3,2^5[8:1],1,7-3[8:1],8,3x,2,2-5[8:1],1,7^4[8:1],8,2-6[8:1],1,6,7,7-3[8:1],8,1,1,2,3/5,,7-4[8:1]/8-3[8:1],1/6,7x/8x,,1-6[8:1]/2-5[8:1],3/8,1x/2x,,
{12}7/8,6,5,3/4,2,1,1/8-4[8:1],,,8/2-6[8:1],,,2/7b,,,
E
Re:MASTER
(102)
{4}2qq5[8:3],6h[2:1],,4xb,7pp4[8:3],3h[2:1],,B3/E4,2qq5[8:3],6h[2:1],,4xb,6qq1[8:3],3h[2:1],,B2/E3,
{8}8,7,4/6,,1,2,3/5,,4pp5V31[8:3],4,6,,8-4[8:1],,8,,1,2,3/5,,8,7,4/6,,5qq4V68[8:3],5,4,,
{4}1-5[8:1],1,5/7,A6/A7/D6/D7/D8,2/4,A2/A3/D2/D3/D4,5/7,A6/A7/D6/D7/D8,2/4,A2/A3/D2/D3/D4,
{8}2-6[8:1]/8-4[8:1],3/7,,,1v4[8:1]/7v4[8:1],2/6,,,1/7,1/7,2qq1[4:1]/6qq5[4:1],2/6,,,,
{24}5,,5,3,,3,4,,4,2,,2,6,,6,4,,4,7,,7,5x^2[8:1],,,,,,
{8}6^8[8:1],6,1-5[8:1],1,8h[4:1],,
{12}2,
{8}2,3/4,7,5/6,1,3/5,8,4/6,
{24}1,8,,8,1,,1,6,,6,4,,3/7,,,5x,4xb>1[8:1]b*<8[8:1]b,,
{12}3xb/6xb,3xb/6xb,,,,
{8}1/8,A3/A4/B3/B4/C/D4,1/8,A5/A6/B5/B6/C/D6,
{12}2/8,
{24}2/8,,,1/7,1/7,,,8,,8,1,,,
{8}3/5,4/6,5/7,
{12}7xb/8b,5xb/6b,3xb/4b,1xb/2b,,,6^1[8:1],
{24}6,5,,,4x,,,4x,,,3^8[8:1],,3,4,,,
{8}5x,5x,5/6-8[8:1]b,4/5,5/6,4,
{24}3^1[8:1],,3,4,,4x,3x,,,,,,
{8}1/8,A5/A6/B5/B6/C/D6,1/8,A3/A4/B3/B4/C/D4,
{12}1/7,
{24}1/7,,,2/8,2/8,,,1,,1,8,,,
{8}5/7,4/6x<2[4:1],3/5,
{12}3,4,5,6,,,3V84[4:1],
{24}3,4,,,5x,,,5x,,,6V15[4:1],,6,5,,,
{8}4x,4x,3p2V86-4[2:1],4,5x,6x,7x,,,
{12}1b/8b,1b/8b,,,
{24}6,5,,3,4,,2h[24:13],A4/D5,,,
{8}D6/E6,B3/E3,A8/D1,
{24}6,,,,,3,4,,6,5,,7h[24:13],A5/D5,,,
{8}D4/E4,B6/E7,A1/D1,
{24}3,,,,,6,5,,3,4,,2h[24:13],A4/D5,,,
{8}D6/E6,B3/E3,A8/D1,
{24}7,,,,,3,4,,6,5,,7h[24:13],A5/D5,,,
{8}D4/E4,B6/E7,A1/D1,
{24}2xb,,,,,3h[4:1],4h[8:1],,,,,6h[4:1],5h[8:1],,,,,3h[4:1],4h[8:1],,,,,6,5qq7^2[8:3],,,,,7,7h[4:1],,,,,,,,,,,,4x/6x,,,,,1,,,3,4,,2,1,,7,8,,6,5^8[8:1],,,
{8}4/6,5^2[8:1],4,5pp4[4:1],6,
{3}1h[4:1],
{24}3x,3x,,,2x/4x,,,,,2h[4:1],1h[8:1],,,,,7h[4:1],8h[8:1],,,,,3h[4:1],4h[8:1],,,,,6h[4:1],5h[8:1],,,,,3,4pp2^7[8:3],,,,,2,2h[4:1],,,,{3},
{12}7/8,6,4/5,3,1/2,8,5/6pp4[4:1],7,8h[12:4],,,,,,,7,
{24}7,5,,5,4,,4,2,,2,7,,7,8,,8,1,,1,2,,2,7,,7,5,,5,4,,4,2,,2,6,,6,4,,4,5p4[4:1],,,
{8}3/6,,,,,
{12}1xb^4[8:1]b/8xb^5[8:1]b,4b/5b,2b/7b,1b/8b,,,
{8}2/8,A5/A6/B5/B6/C/D6f,1/7,A3/A4/B3/B4/C/D4f,
{24}8,,8,2x,,2,4,,4,6x,,6,8,,,
{8}5x/7x,3/5,2x/4x,
{12}1xb/2b,3xb/4b,5xb/6b,
{8}7xb/8b,4x/5x,
{24}3^8[8:1],,2,6x,,,4,,,4x,,,6^1[8:1],,7,3,,,
{8}5,5x,6/3b-1[8:1]b,4x/5x,3/6,5x,
{12}4/6^1[8:1],
{24}4/6,,,5x,{4},
{8}1/7,A3/A4/B3/B4/C/D4,2/8,A5/A6/B5/B6/C/D6,
{12}1/2,
{24}3/8,,,4/6,7/3pp3[4:1],,,,,,
{12}Cf,,,7x>3[4:1],,,3,4,5,6,,,6-1p5[4:1],
{24}6,5,,,4x,,,4x,,,3-8q4[4:1],,3,4,,,
{8}5x,5x,6q7-1V35[2:1],5,4x,3x,2x,,,
{12}1/8,1/8,,
{8}2b/7b,
{24}6,,6,8,,8,1,,1,3,,3,8,,8,1,,,
{8}5/2-7[8:1],2/5-8[8:1],2pp5[4:1],,2,,8x,,2h[8:1],4h[8:1],5h[8:1],7,7h[8:1],5h[8:1],4h[8:1],2,1^4[8:1],4,1/5-1[8:1],6,5/7,,
{32}8pp3V17-5[2:1],7,6,5,4,3,2,1,8,,,,{2},
{24}7,,7,6/8,,,2,,2,1/3,,,7/8,,,2/5,,,1,,1,2-5[8:1]/8-5[8:1],,,
{8}3/7,2x/8x,,
{24}3-1[8:1]/4-8[8:1],,2/5,2/5,,,
{12}3xb/4xb,,,5-1[8:1]/6-8[8:1],
{24}4/7,4/7,,,
{12}5xb/6xb,,,1/8,2/4,5/7,1/8,2/4,5/7,1-5[8:1]/8-4[8:1],,,
{48}1^4[12:1]/8^5[12:1],{4},{48}D2/D8,D3/D7,D4/D6,
E
最終更新:2026年08月08日 01:47