アットウィキロゴ

ナイト・オブ・ナイツ〈でらっくす〉

アーティスト ビートまりお(COOL&CREATE)

BPM BASIC ADVANCED EXPERT MASTER Re:MASTER
180 5 7+ 11+ 13 -

EXPERT MASTER Re:MASTER
譜面制作者 鳩ホルダー はっぴー -

BASIC


ADVANCED


EXPERT


MASTER

(180){1}1>8[1:1],{4},,,8,{1}1>8[1:1],{4},,,8,{4}1pp4[4:3],,,7,8qq5[4:3],,,2,1>4[4:1],7,8<5[4:1],2,1-5[8:1],7-3[8:1],2-6[8:1],8b,{8}7,7,5>1[4:1],,1<5[4:1],,5>1[4:1],,1<5[4:1],,5,,1,1,3/7,,2,2,4<8[4:1],,8>4[4:1],,4<8[4:1],,8>4[4:1],,4,,8,8,6/2,,
1>5[4:1],,5<1[4:1],,1,,5,,8<4[4:1],,4>8[4:1],,8,,4,,{4}1v4[8:1]*v6[8:1],1,8-3[8:1]*-5[8:1],8,1>4[8:1]*<6[8:1],1,{8}8,1/7,2b/6b,,

{16}8,,8,,3,4,2,,1,,1,,6,5,7,,8,,8,,3,4,2,,1-5[8:1],,8-4[8:1],,1,,8,,1,,1,,6,5,7,,8,,8,,3,4,2,,1,,1,,6,5,7,,8-4[8:1],,2-6[8:1],,8,,2,,8,,8,,4,5,3,,1,,1,,5,4,6,,8,,8,,3,4,2,,1-5[8:1],,7-3[8:1],,1,,7,,{4}1w5[8:1],1x,8w4[8:1],8x,1-3[8:1]*-7[8:1],1w5[8:1]b,1x,3bx/7bx,{16}1,,3,,6,5,7,,8,,6,,3,4,2,,1,,3,,6,5,7,,8<5[8:1],,1>4[8:1],,8,,1,,8,,6,,3,4,2,,1,,3,,6,5,7,,8,,6,,3,4,2,,1-5[8:1],,7<4[8:1],,1,,7,,1,,3,,6,5,7,,8,,6,,3,4,2,,1,,3,,6,5,7,,8-4[8:1],,2>5[8:1],,8,,2,,{4}8w4[8:1],8x,1w5[8:1],1x,8-6[8:1]*-2[8:1],8w4[8:1]b,8x,6bx/2bx,

{16}7,,7,,E7,E6,E5,,2,,2,,E3,E4,E5,,7,,7,,{4}8x-5[8:1]*-6[8:1],8x-3[8:1]*-4[8:1],8x,{16}2,,2,,E3,E4,E5,,7,,7,,E7,E6,E5,,2,,2,,{4}1x-4[8:1]*-3[8:1],1x-6[8:1]*-5[8:1],1x,{8}7,7h[8:1],5,5h[8:1],3,3h[8:1],1,,8-4[8:1],4-8[8:1],,,1-5[8:1],5-1[8:1],,,6-8[8:1],6,5,,3-1[8:1],3,4,,7-3[8:1],,7x/1-5[8:1],,1x/8-4[8:1],,2b/8x,,{16}1,,1h[8:3],,E3,E4,E5,,8,,8h[8:3],,E7,E6,E5,,3,,3,,{4}2-8[8:1]/6-8[8:1],6-4[8:1]/2-4[8:1],2/6,{16}8,,8h[8:3],,E7,E6,E5,,1,,1h[8:3],,E3,E4,E5,,6,,6,,{4}7-1[8:1]/3-1[8:1],3-5[8:1]/7-5[8:1],7/3,{8}2,2h[8:1],4,4h[8:1],6,6h[8:1],8,,1-5[8:1],5-1[8:1],,,8-4[8:1],4-8[8:1],,,3-1[8:1],3,4,,6-8[8:1],6,5,,{4}3-8[8:1],3x/7-3[8:1],4/7x,1b/8b,

{8}2h[4:1],,4h[4:1],,6h[4:1],,8,8,,,3-5[8:1]/7-1[8:1],,3/7,,4/8,,7h[4:1],,5h[4:1],,3h[4:1],,1,1,,,6-4[8:1]/2-8[8:1],,6/2,,5/1,,6h[4:1],,8h[4:1],,2h[4:1],,4,4,,,3-8[8:1]/7-4[8:1],,3/7,,2/6,,3h[4:1],,1h[4:1],,7h[4:1],,5,5,,,6<1[8:1]/2>5[8:1],,6/2,,7/3,,6h[4:1],5,4h[4:1],5,7h[4:1],5,4,3,1-4[8:1]/2,,1/8-5[8:1],,7>2[8:1]/8,,4/7,,3h[4:1],4,5h[4:1],4,2h[4:1],4,5,6,8-5[8:1]/7,,8/1-4[8:1],,2/1,,5/2,,1/8-5[8:1],,2/8-3[8:1],,6/8-4[8:1],,2/8,,8/1-4[8:1],,7/1-6[8:1],,3/1-5[8:1],,7/1,,8-4[8:1],,3-7[8:1],,5-8[8:1],,4,4,,,2b/6b,1b/5b,8b/4b,,2bx/6bx,,

{16}7/8,,1,,3,4,2,,2/1,,8,,7,5,6,5,6,,7,,1-3[8:1],,8-4[8:1],,1-5[8:1],,8-6[8:1],,1,,8,,2,,3/5,,6,5,7,,7/8,,1,,2,4,3,4,3,,2,,8-6[8:1],,1-5[8:1],,8-4[8:1],,1-3[8:1],,8,,1,,7,,4/6,,3,4,2,,1/2,,8,,7,5,6,5,6,,7,,1-3[8:1],,8-6[8:1],,1-5[8:1],,8-4[8:1],,1,,8,,{2}1V35[8:1]*q5[8:1],8V64[8:1]*p4[8:1],{4}1>3[8:1]*<7[8:1],1w5[8:1]b,1,3bx/7bx,

{16}3/5,,4/6,,7,8,7,,1/2,,3/4,,6,5,6,5,7,,4/8,,2<8[8:1],,6>4[8:1],,2-5[8:1],,6-1[8:1],,2,,6,,4x,,3/5,,2,1,2,,7/8,,5/6,,3,4,3,4,2,,1/5,,7>1[8:1],,3<5[8:1],,7-4[8:1],,3-8[8:1],,7,,3,,B5/B4/Cf,,,,,,1,8,1,,3>1[8:1]b/6<8[8:1]b,,4/5,,,,,,8x,,7x,,2x/6x,,1,2,3,4,5,6,7,8,1b,,3/5,,3/5,,,,2b/6b,,7,,{4}1-5[8:1]/8-6[8:1],8-4[8:1]/1-3[8:1],1-5[8:1]/8-6[8:1],8-4[8:1]/1-3[8:1],1p8<2[4:6]/8,1b,E

Re:MASTER


  • MASTER譜面を追加しました。修正等ありましたらよろしくお願いします。 -- Sugar (2026-06-07 15:02:44)
名前:
コメント:

タグ:

+ タグ編集
  • タグ:
最終更新:2026年06月07日 15:02