BASIC
ADVANCED
EXPERT
(170)
{4}1,2,3,4,3/5,,,,8,7,6,5,4/6,,,,1,2,3,4/5,5/6,,,,8,7,6,
{8}5x,5x,{1}4x,
{4}E5,E4/E6,B2/B7/C,,1>5[4:1],,,,5,4/6,5/7,,8<4[4:1],,,,4,3/5,2/4,,1/7,
{8}8,1,8h[4:1],,,,3/5,,4,5,4h[4:1],,,,
{4}7<3[4:1],,1h[4:1],,2/8,1/7,6/8,5/7,8h[1:1],1>4[4:1],,,,3h[2:1]/6h[2:1],,,B1/B2/E2,,B3/B4/E4,,5,4/6,5/7,,B7/B8/E8,,B5/B6/E6,,4,3/5,2/4,,B4/B5/E5,,B6/B7/E7,,8,1/7,2/8,,
{2}B4/B5/E5,B2/B3/E3,1h[4:1]/3h[4:1],2xh[8:1]/8xh[8:1],2h[2:1]/4,5h[2:1],
{4}2,5-8[8:1],,,1/3h[2:1],,8h[2:1],,3,8-5[8:1],,,5/7h[2:1],,4h[2:1],,7,4-1[8:1],,,8/6h[2:1],,1h[2:1],,6,4/5,3/6,,1q6[8:3]/2>5[8:3],,,,5,4/6,3/7,,7<4[8:3]/8p3[8:3],,,,4,3/5,2/6,,3>8[8:3]/4p7[8:3],,,,8,1/7,2/6,,5q2[8:3]/6<1[8:3],,,,1/2,
{8}3x,3x,4x,,,,
{4}4/6h[2:1],4,4h[2:1],6,6,5/7,4/8,,5/3h[2:1],5,5h[4:1],3<6[4:1],,,8b,,4>2[4:1]/6h[1:1],,,1,2h[2:1],4,5,,2h[1:1]/4<6[4:1],,,7,6h[2:1],4,3,,5>3[4:1]/7h[1:1],,,2,3h[4:1],5,4/6,,3h[2:3]/4<1[4:5],,,,,,,,2/3,4,5,6,1/7,,1h[4:1]/8h[4:1],,2h[4:1]/7h[4:1],,
{16}3h[4:1]/6h[4:1],,,,,,,4x,5x,,,,
{4}2/3,1/2,1/8,2b>5[4:1],,6,1/7,7b<4[4:1],,3,2/8,1h[8:1]/3h[8:1],1/3,5h[8:1]/7h[8:1],5/7,6,7/8,1/8,1/2,8-4[4:1],,3,2/8,1-5[4:1],,6,1/7,
{8}6x,6x,5/7,,4x,4x,3/5,,2h[4:1]/4h[4:1],,,,,1x,1x,,
{4}7b<4[4:1],,3,2/8,2b>5[4:1],,6,1/7,6h[8:1]/8h[8:1],6/8,2h[8:1]/4h[8:1],2/4,
{16}6h[16:3],,,5xh[16:3],,,4x,,3h[16:3],,,2xh[16:3],,,
{8}1x,1,,
{4}1b/8b,3,4/6,8-4[4:1],,3,2/8,
{8}7h[4:1],1x,1x,,2h[4:1],8x,8x,,
{4}1-4[4:1]/7-4[4:1],,,,2h[4:1],1h[4:1],
{8}3x,4x,3,,7h[4:1],,8h[4:1],,6x,5x,6,,3h[4:1],,4h[4:1],,5x,6x,5,,
{4}6h[4:1],5,5x/6x,,8<5[4:1],,4,8x/2z6[2:1],,,,,
{8}3x/5x,3/5,,4x/6x,4/6,,,,2x/8x,2/8,,1x/7x,1/7,,,,2h[4:1],1x,1x,,7h[4:1],8x,8x,,3h[4:1],4x,5x,,6h[4:1],5x,4x,,
{2}Cf,,3-1[4:1],5-7[4:1],4-2[4:1],6-8[4:1],1q5[4:1],7p3[4:1],2q6[4:1],8p4[4:1],
{4}3,2/4,5/3h[2:1],,6,5/7,4/6h[2:1],,1,2/8,1/3h[2:1],,8,1/7,8/6h[4:3],
{8}3h[2:1],,,,,4x,5b,,,,
{1}8<1[4:9],,,
{12}1x,8x,1x,
E
MASTER
Re:MASTER
最終更新:2026年07月01日 06:54