BASIC
ADVANCED
EXPERT
MASTER
(190){1},,,,,,,{16}4h[8:1],,5,4,5,,3/6,,2b/7b,,,,,,,,{8}7-5[8:1],7,3-1[8:1],3,7-5[8:1],7,2,2,{16}7h[16:3],,,8,7,,1/6,,1/6-4[8:1],,,,3,,,,{8}2-4[8:1],2,6-8[8:1],6,2-4[8:1],2,7,7,{16}2h[8:1],,1,2,1,,3/8,,3/8-4[8:1],,,,1b,,,,{8}2-4[8:1],2,6-8[8:1],6,2-4[8:1],2,7,7,{16}2h[16:3],,,1,2,,8/3,,8-5[8:1]/3,,,,4,,,,3,4,3,6,5,6,3,4,3,,{8}7,8,1,2/5,3,7/4,6,1/5,,C,,
{8}7x>1[8:1],,2,,3<5[8:1],,6,,7>1[8:1],,2,2-6[8:1],,7-3[8:1],,2h[4:1],,4,4,,3/5,,4qq4[4:1],4,6,,7,7h[4:1],,5,4,3hx[4:1],,5,6,7hx[4:1],,5,4,3hx[4:1],,5,6,7hx[4:1],,5,5>1[4:1],,1<5[4:1],,5,,8,,
4/6,4/6,,3/5,3/5,,2/6>3[8:1],,,,1x-5[8:1]/2x-4[8:1],,,,8x-4[8:1]/7x-5[8:1],,,,1x/2x,,3x/7x,3x/7x,,4x/6x,,7x-5[8:1]/5x-1[8:1],,,,,2x-4[8:1]/4x-8[8:1],,,,{2}7x<2[8:3]/5xs1[8:3],{4},{8},2hx[4:1]/8hx[4:1],,,2x/8x,,1x/7x,1x/7x,1x/7x,,2x/6x,2x/6x,2x/6x,2hx[4:1]/6hx[4:1],,,4x-1[8:1]/5x-8[8:1],,4x/5x,,2x/7x,2x/7x,,4x/5x,4x/5x,4xp1[8:3]/5xq8[8:3],,,,,,,C,,
{8}6,6,5,7,3,3,4,2,6,6,4,4,3h[8:1]/5h[8:1],,6h[8:1]/4h[8:1],,3,3,4,2,6,6,5,7,3,3,5,5,4,4x/5x,4x/5x,4x/5x,6,6,5,8,2,2,4,1,
8x/1x,8x/1x,8x/1x,8x/1x,8x/1x,,3/6,,2b,1b,8b,7b,6b,5b,4b,3b,{4}E6/B6,E1/B8,B4/E5,E2/B2,6hx[1:1],E7,E5,E1,3h[1:1],E3,E5,E1,7hx[4:1],5h[4:1],4h[4:1],2,{32}1x,2x,3x,4x,5x,6x,7x,8x,1x,2x,3x,4x,5x,6x,7x,8x,{2}1x,8b,,,{4},{12}6h[12:2],,5,7,,,3h[12:2],,4,2,,,6h[12:2],,5,7,,,3h[12:2],,4,2,,1/8,,5/7,,{1}Cf/B3/B6,{16}3/6,,5,4,5,,3,,3,,8b,,8b,,8b,,
{8}2-6[8:1],2,4<2[4:1],4,8,,3x,3hx[4:1],,4-8[8:1],4,2,2s6[4:1],,7x,7hx[4:1],,B4/B5,E8/B7,B1/E2,E6/B6,B4/E4,C,1x-5[8:1],,7,7-3[8:1],,3b/7b,,2x/4x,2x/4x,,1-5[8:1],6<4[4:1],1,6,,5x,5hx[4:1],,6,6,3,3x/6x,3x/6x,4xq8[8:1]/5x<7[8:1],,5xp1[8:1]/4x>2[8:1],,4x/5x,,{16}7h[8:1],,8,7,8,,1/6,,{8}1b/6b<3[4:1],,,,,1x,1x,1x,7-3[8:1],7,5>7[4:1],5,1,,6x,6hx[4:1],,5qq4[4:1],5,8,8,,6,{32}4x,E4,B3,B2,{4}E2,{32}5x,E6,B6,B7,{8}E8,1x,1x,1x,2x/8x-4[8:1],,4,3<6[8:1],,3b/6b,,2x/7x,2x/7x,,8-4[8:1],3>5[4:1],8,3,,4x,4hx[4:1],,3,3,6,7hx/2x,7hx/2x,8hx/1x-5[8:1],,1xw5[8:1],,1x,,{16}7hx[8:1],,5,7,5,,4/8,,{8}4b/8b<3[4:1],,,,,,2x,3,4,5,6,7,1/8,,4>1[8:1]*>1[8:1]/5,,{32}4b/5b,E6,E7,E8,,,,,{12}1x,1x,8x,2x/7x,,,{4}1-4[8:1]/8-5[8:1],
{16}1b/8b,,,,,,,,7,,E5,E4,E3,,8,,8h[4:1],,,,6h[4:1],,,,4h[4:1],,,,2,,2,,8,,E2,E3,E4,,7,,7h[4:1],,,,5h[4:1],,,,4V68[4:1],,,,,,1,,1,,,,3x/7x,,,,
2h[4:1],,,,4h[16:3],,,5,5h[4:1],,,,8,,,,{8}4/7,6,2/5,3,4/5-8[8:1],,1,,2,2h[8:1],4,4h[8:1],5,5h[8:1],7,7,1b,E8/B8,B2/B3,B6/E6,C,,1x/8x,,3h[4:1]/5h[4:1],,,6h[4:1]/4h[4:1],,,3h[4:1]/5h[4:1],,,
6h[4:1]/4h[4:1],,,E3,,E7,,2h[4:1]/5h[4:1],,,7h[4:1]/4h[4:1],,,2h[4:1]/5h[4:1],,,7h[4:1]/4h[4:1],,,B6,,B3,,{4}5x<8[4:1],,,{32}E2,B2,B3,B4,{8}E5,8x,,1x/7x,,2/6,2/6,2/6,2/6,3/7-3[8:1],,4,4-1[8:1],,8,,2b/7b,,{16}6,5,7,,3,4,2,,6,,6h[8:1],,{32}4x,3x,2x,1x,8x,7x,6x,5x,4x,3x,2x,1x,8x,7x,6x,5x,4x,3x,2x,1x,{2}8b,
{8}2/4,2/4,,,5/7,5/7,,,2x/7x,,4x/5x,,1hx[4:1]/8hx[4:1],,,,E8/B7/E6/B5,,E2/B2/E4/B4,,C,,1x/8x,1x/8x-4[8:1],,2,2-6[8:1],,2b/6b,,5x/7x,5x/7x,,1-5[8:1],6<4[4:1],1,6,,5x,5hx[4:1],,6,6,3,2/7,{16}2x/7x,3x/6x,{4}4hx[2:1]/5hx[4:1],,,6>3[8:1],{8},,1h[8:1],{16}8,1,8,,2,,2,,{8}7x,7x,7x,2-5[8:1]/6-1[8:1],,2b/6b,,4/8,,3/7,3/7h[4:1],,5-1[8:1],8-4[8:1],5,8,,2,2h[4:1],,B4/B5,E2/B2,E8/B8,B3/E4,E6/B5,C,8x-4[8:1],,2,2-6[8:1],,2b/6b,,5x/7x,5x/7x,,1-5[8:1],6<4[4:1],1,6,,5x,5hx[4:1],,6,6,3,2x/7x,2x/7x,1x/8x>3[8:1]*<5[8:1],,8xw4[8:1],,8x,,{16}2hx[8:1],,4,2,4,,3/5,,{4}2b/6b,4x-1[8:1]/5x-8[8:1],4x/5x,2x/7x,{8}4/7,4/7,4/7,,{16}E7,,,E3,,,E5,,{8}2x/5x,2x/5x,2/5,,{16}3x/B8/E8,,,6x/B1/E2,,,,,{8}3/6,3/6,3/6,,{16}Cf/E5/B4/B5,,,,,,,Cf/E7/B6/B7,,,,,Cf/E1/B8/B1,,,,Cf/E3/B2/B3,,,,,,,,{8}1x/7x,1/7,1/7,,{16}E7,,,E3,,,E5,,{8}2x/5x,2x/5x,2/5,,Cf/B3/B4/E4`B5`E6`B6,,,,1x/8x,1x/8x,1p4[4:1]/8<5[4:1],,,,,,2b/7b,,{12}8,8,1,2b/7b,E
Re:MASTER
- MASTER譜面を追加しました。修正等ありましたらよろしくお願いします。 -- Sugar (2026-09-06 15:05:43)
最終更新:2026年09月06日 15:05