BASIC
(185)
{1}1,1,1,,8,8,8,8h[1:1]/1h[1:1],,8,7,6,5,4,3,2,8/1,
{2}1,1,2,,3,3,4,,5,5,6,,7,7,8/1,,1,1,1/2,,8,8,8/7,,1,1,1x/8x,,{1}8-4[4:3],,1-5[4:3],,7-4[4:3],,B3,B2,B1,B8,B7,B6,Cfh[1:2],,,1x/8x,
{4}1b,1,1,,2,,2,,3,3,3,,3/4,,,,5,5,5,,6,,6,,7,7,7,,7/8,,,,8,8,8,,7,,7,,6,6,6,,5/4,,,,4,4,4,,3,,3,,2,2,2,,1b/8b,,,,
{1}1h[1:1]/2h[1:1],,3h[1:1]/4h[1:1],,5h[1:1]/6h[1:1],,7h[1:1]/8h[1:1],,1h[1:1]/8h[1:1],,,
{2}8,8,7,7,6,6,6/5,,{4}4b,4,4,,3,,3,,2,2,2,,2/1,,,,1,1,1,,2,,2,,3,3,3,,4/5,,,,5,5,5,,6,,6,,7,7,7,,8/1,,,,8,8,8,,7,7,7,,6,6,6,,5,5,5/4,,4,4,4,,3,3,3,,2,2,2,,1,1,1/8,,1,1,1,,2,2,2,,3,3,3,,4,4,4/5,,5,5,5,,6,6,6,,7,7,7,,8,8,8/1,,8/7,8/7,8/7,,6/5,6/5,6/5,,4/3,4/3,4/3,,2/1,2/1,2/1,,8/7,8/7,8/7,,2/1,2/1,2/1,,1/8,1/8,1/8,,2b/7b
E
ADVANCED
(185)
{2}4,4,3,3,2,2,1/8,1/8,7,7,6,6,5,5,4q5[4:5],,,,{4}6,6,6/5,,7,7,7/8,,1,1,1/2,,3/4,3/4,3/4,,3,3,3/4,,2,2,2/1,,8,8,8/7,,6/5,6/5,6/5,,
{2}7-4[4:3],,,3,2-5[4:3],,,6,7-3[4:3],,,2,1-5[4:3],,,6,{4}5/6,5/6,5/6,,7,7,7,,8/1,8/1,8/1,,2,2,2,,3/4,3/4,3/4,,4x/5x,,,,{2}6h[2:1],5h[2:1],4h[2:1],3,3h[2:1],4h[2:1],5h[2:1],6,7h[2:1],6h[2:1],5h[2:1],4,{4}B2,B3,B4,,B7,B6,B5,,B1,B2,B3,B4,B5,B6,B7,,1,1,1,,8,8,8,,1-4[4:3]/8-5[4:3],,,,,,,,4h[1:1]/5h[1:1],,,,,,4x/5x,,
{4}6b,6,7,7,8,8,1/2,,3,3,2,2,1,1,8/7,,7,7,6,6,5,5,4/3,,2,2,3,3,4,4,5/6,,6,6,7,7,8,8,1/2,,3,3,2,2,1,1,8/7,,7,7,6,6,5,5,4/3,,2,2,3,3,4,4,5/6,,
{2}7-4[4:3],,,3,2-6[4:3],,,7,8-4[4:3],,,3,3-8[4:3],,,7,7p4[4:7],,,,,,
{2}3h[1:1]/4h[1:1],,,5h[1:1]/6h[1:1],,,4/5,4/5,{4}6b,6,7/8,7/8,1,1,1/2,,3,3,2/1,2/1,8,8,8/7,,7,7,6/5,6/5,4,4,4/3,,2,2,3/4,3/4,5,5,5/6,,6h[2:1],,5,,7h[2:1],,8,,2h[2:1],,1,,3h[2:1],,4,,3,3,3,3/4,2,2,2,2/1,8,8,8,8/7,6,6,6/5,,6bx,6,6,6/5,7,7,7,7/8,1,1,1,1/2,3,3,3/4,,2h[2:1],,1,,3h[2:1],,4,,6h[2:1],,5,,7h[2:1],,8,,8,7,6,5,4,3,2/1,,1,2,3,4,5,6,7/8,,8,7,6,5,4,3,2,1,8,7,6,5,5/4,5/4,6/3,,5,6,7,8,1,2,3,4,4/5,4/5,3/6,3/6,2h[4:3]/7h[4:3]
E
EXPERT
MASTER
(185)
{2}7h[2:1],E6,6h[2:1],E5,5h[2:1],E4,4h[2:1],E3,2h[2:1],E4,3h[2:1],E5,4h[2:1],E6,5/6p4[8:9],,,{8},3,3/4,,2-5[8:1],,6,,7,7,4/6,,3,3,5,4,6,6,5/7,,2h[4:1],,4,,6,5,4/7,,8,1,2/7,,3,4,2/5,,7-4[8:1],,3,,2,2,3/5,,6,6,4,5,3,3,2/4,,7h[4:1],,5,,3,4,2/5h[2:1],,,6,7,8,1,2,3,4,
{8}6/5h[4:6],,7,,6,6,,4,,6,6,,7,7,6/4,,3/4h[4:6],,2,,3,3,,5,,3,3,,2^7[8:1],,5,,6h[4:1],,5,,3,3/4,,2/5,,6,6/5,,7,5,6/4qq5[8:5],,7,,,,6,6,,4,4,5,,3/4-8[8:1],,1,1,,2,2h[4:1],,4h[4:1],,5h[4:1],,7,7^2[8:1],,4,,3,3,4,2,8^5[8:1],,4,,3^8[8:1],,7,,6^3[8:1],,2,,1-5[8:1],,8,,4x/6x,4x/6x-1[8:1],,2-5[8:1],,8-4[8:1],,1,,1/2,8b/3b,,,4,4,,6,6,4h[4:1]/6h[4:1],,,4/6<4[2:1],,5,,,,,2h[4:1],,4,,3,3,3/5,,4/6,,7,7h[4:1],,5,,7/6,,5/4,,3/2-5[8:1],,7,7,,8,8^5[4:1],,5^2[4:1],,2^7[4:1],,7,,4,4,,{16}2,,2,,5,,3,4,3,,5,,4/6,,,,7,,7,,4,,6,5,6,,4,,3/5,,,,3,,3,,8,,2,1,2,,8,,1/7,,,,6,,6,,1,,7,8,7,,1,,8/2,,,,{8}6h[4:1],,5,4/7-1[8:1],,3-5[8:1],,7-3[8:1],,2,2,1^4[8:1],,8^5[8:1],,4xh[1:1],,3,2,1,8,7,6,3xh[8:3]/5xh[8:3],,,,5x/3x-8[8:1],,6-1[8:1],,2b,,2,3/5,6,7/8,1,8/2,3,6h[4:1]/4^1[8:1],,,,2h[4:1]/8<5[8:1],,,,
{8}3-8[8:1],5,7-4[8:1],,1/7,,3-8[8:1],5,7-4[8:1],,7/1,,2x/6x,6x/2xqq5[8:3],,5b,,,8,,1/7,2/6,5/3-5[8:1],,7,7-3[8:1],,1,,1/2,3/8,,6-1[8:1],4,2-5[8:1],,2/8,,6-1[8:1],4,2,2,3,5,2x/6x,2xqq3[8:3]/6xqq7[8:3],,,,,,,4/8,5,7,1,3,4^1[8:1]/8^5[8:1],,,,3x/7x,3x/7x,,{6}1h[6:1],2h[6:1],3,7h[6:1],6h[6:1],5,3h[6:1],4h[6:1],5,{8}5,4/6,3/7,2b/8b,,,,3/7,6,4,2,1q5[8:1]/5q1[8:1],,1x/5x,,4^1[8:1]/8^5[8:1],,4x/8x,,,{8}2h[4:1]/6,,4,3,6,5,4/8,,3/7h[4:1],,5,6,3,4,1-5[8:1]/5,,7^2[8:1],7,3^6[8:1],3,8,8,1x/7x,2b/6b,2b/6b,2b/6b,,5b-1[8:1],,Cf,,,
{8}8,8,1,2/8,,3/7,,4h[4:1]/6h[4:1],,,4/6,,3,5,2/6,,7h[4:1],,5,,1,1h[4:1],,3h[4:1],,5h[4:1],,7h[4:1],,8,7,6,5/3,4,6,8,2,4/6^1[4:1],,1^4[4:1],,4^7[4:1],,7^2[4:1],,2^5[4:1],,,8h[8:3],,,,1/7,1/7-5[8:1],,1-3[8:1],,8-4[8:1],,3,,3/5,2/6,,1/8,7,6,5,4,3q5[1:1],2,1,,,,,,,,,,6,6/5,,{16}3,4,2,,6,5,7,,
{8}1xh[8:11]/8xh[8:11],,,,,,,,,,,,1/8,2/7,3/6,{16}4x,4x,5x-2[8:1],,,,{8}5bx-8[8:1],,5bx^2[8:1],,5bx^8[8:1],,5bx,,1/2,1-6[8:1]/2-5[8:1],,1b/2b,,,7-4[8:1],1,3-8[8:1],,3/5,,7-4[8:1],1,2,3,5,6,7,8qq5[8:3]/4qq1[8:3],,,,,,,3/7,6,5,4,2/6,2-5[8:1]/6-1[8:1],,2/6,,3x/7x,3x/7x,,{6}8h[6:1],7h[6:1],6,2h[6:1],3h[6:1],4,6h[6:1],5h[6:1],4-8[8:1],{8},1,1,,{6}4h[6:1],2h[6:1],1,5h[6:1],7h[6:1],8,{8}2b/6b,,,1-5[8:1],1,8,,,7p3[8:1],7,8x,,2,1,3/8x,,2q6[8:1],2,1x,,8,7,1x/6^3[8:1],,2,,4x/5x,6,4x/3,2,5x/6,7,4x/2,1,5x/7,8,4x/3,1bx,1bx,,{16}3,5,3,5,3,5,3,5,3,5,3,5,3,5,3,5,3,5,3,5,3,5,3,5,{8}2x/6x,2x^7[8:1]/6x^3[8:1],,,,,4/5,,1-3[8:1]/8-6[8:1],,,,{6}5x/4x,3x/2x,1x/8x,7x/6x,5x/4x,3x/2x,{8}1b/8b-4[8:1],,2-5[8:1],,6-1[8:1],,3-8[8:1],,7-4[8:1],,1-5[8:1],,5,,3/7,,1/2,1/2,3/8,,8/7,8/7,1/6,,4/5,3/6,2/7,1^4[8:1]/8^5[8:1],,1b/8b,,,{6}4h[6:1],3h[6:1],2,6h[6:1],7h[6:1],8,2h[6:1],1h[6:1],8>6[4:1],,{8}6,7,8b,,,,1/2,3,5,7,8-6[8:1]/1-5[8:1],,8x/1x,,3-1[8:1]/4-8[8:1],,3x/4x,,,2/6h[4:1],,5,,7,8,6/1,,7/3h[4:1],,4,,2,1,3/8z4[4:1],,1x,,,,2/6,,3/4,,5/6,4/7h[4:1],,8,,1/2,1/2-6[8:1],,8,,7/5,7,6/4,6,5/3^8[8:1],5,4,,2/4,2,3/5,3,4/6^1[8:1],4,5,,7/5,7,6/4,6,5/3,5,2/4,1h[4:1],,8,,5/6,4/8b-4[8:1],,1/8,,3/5,5,4/6,6,5b-1[8:1]/7,7,8,,6/4,4,5/3,3,4b-8[8:1]/2,2,1,,1/5,2/6,3/7,4/8,5x/1bxw5[8:1],,Cf,,,7-3[8:1]
E
Re:MASTER
最終更新:2026年08月22日 23:18