アットウィキロゴ

絶対敵対メチャキライヤー

アーティスト メドミア

BPM BASIC ADVANCED EXPERT MASTER Re:MASTER
190 3 7+ 9+ 12+ -

EXPERT MASTER Re:MASTER
譜面制作者 サファ太 はっぴー -

BASIC


ADVANCED


EXPERT


MASTER

(190)
{8},,,,,,,
{8}34,2h[4:1]/5h[4:1],,,56,4h[4:1]/7h[4:1],,,45,3-1[8:1]/6-8[8:1],,,,2-5[8:1]/7-4[8:1],,2x/7x,
{8},6,7^4[8:1],,3,2,1^4[8:1],,5,6h[4:1],,5-1[8:1],,7^4[8:1],,2,
{8},2,1^4[8:1],,5,6,7^4[8:1],,3,2h[4:1],,4pp5[4:1]*qq3[4:1],,,,,
{8},3,2^5[8:1],,6,7,8^5[8:1],,4,3h[4:1],,4-8[8:1],,2^5[8:1],,7,
{8},7,8^5[8:1],,4,3,2^5[8:1],,6,7h[4:1],,5,,35,35,35,
{8},1-4[8:1]/2-4[8:1],,,,1-4[8:1]/2-4[8:1],,,,{4}1h[8:1]/2h[8:1],1h[8:1]/2h[8:1],3h[8:1]/4h[8:1],{8}3h[8:1]/4h[8:1],
{8},3-1[8:1]/4-1[8:1],,,,3-1[8:1]/4-1[8:1],,,,3^8[8:1]/5h[4:1],,,,,4x,4x,
{8},1-4[8:1]/2-5[8:1],,,,1-5[8:1]/8-3[8:1],,,,12,,12,,3,3,4,
{8},2h[2:1]/5h[2:1],,,,,34,3-7[8:1]/4-8[8:1],,,,1-5[8:1]/2-6[8:1],,,,7xh[8:1]/8xh[8:1],
{8},56,,6/5pp7[4:1],,6,,6,,,57,7/5pp7[4:1],,6,,6,
{8},,57,5h[8:1]/7h[8:1],,{4}6h[8:1]/8h[8:1],5h[8:1]/7h[8:1],6h[8:1]/8h[8:1],{8}5^6v8[4:1]/7h[8:1],,,,,
{8},7,,7-4[8:1]/8-5[8:1],,,,7,7,78,,7^4[8:1]/8-3[8:1],,,,3x/5x,
{8}3x/5x,,46,4/6-8[8:1],,{4}5-1[8:1],8-4[8:1],1^4[8:1],5,6<2[4:1],{8}2<6[4:1],
{8},4,,4,,3,,2,2,4,4,3,3h[4:1],,4,4,
{8},2-4[8:1]/5-7[8:1],,,,47,,58,58,,4-2[8:1]/7-5[8:1],,,,,1xh[4:1],
{8},8,,7^4[8:1]/8^3[8:1],,,,25,25,,3^1[8:1]/4q8[8:1],,,,,35,
{8},4,4,6qq3[2:1],6,1x,,1x,,1h[8:3],,,7,7,,7-3[8:1]b/8-4[8:1]b,
{8},7b/8b,,1-5[8:1]b/2-6[8:1]b,,1b/2b,,7-4[8:1]b/8-5[8:1]b,,7-2[8:1]b/8-3[8:1]b,,,,,1x/5x,1v3[8:1]b/5v7[8:1]b,
{8},,,{4}4v6[8:1]b/8v2[8:1]b,,15,3^8[8:1]/7^4[8:1],{8}3b/7b,,,1x/5x,1x/5x-1[8:1],
{8},3-8[8:1],,6-1[8:1],,4-8[8:1],,5-1[8:1],,4w8[8:1],,,,2x/6x,,7,
{8}8-4-6[4:1],,4,3,2^5[8:1],,6,7-3[8:1]b,,7b/1-5[8:1]b,,1b/8,,,37,37,
{8},2,2h[4:1],,4,4,3,,{4}57,13,68,{8}2,2,
{8}4,5,6h[4:1],,5,5,7h[4:1],,1,1,4,4,2,6,4,8,
{8}5,4,3h[4:1],,4,4,2h[4:1],,1,,E3,E4,E5,E6,E7,E8,
{8}E1,3,2h[4:1],,4,4,1,,58,,7,6,5,4,3,2,
{8},1-5[8:1]/2-5[8:1],,,,7-4[8:1]/8-4[8:1],,,,35,26,1^4[8:1]/7^4[8:1],,,,26,
{8},3h[8:1]/5h[8:1],,4h[8:1]/6h[8:1],,2h[8:1]/4h[8:1],,5h[8:1]/7h[8:1],,4,3,2,1,8b-4[8:1],8b,2b,
{8},1-4[8:1]*-5[8:1],,,,8-3[8:1]*-4[8:1],,,,2h[8:1]/5h[8:1],,4h[8:1]/7h[8:1],,2^4[8:1]/5^7[8:1],,,
{8},8-5[8:1],8,1-4[8:1],1,8-5[8:1],8,1h[4:1],,{4}3h[4:1],5h[4:1],7h[4:1],{8}1-5[8:1],
{8},18,,8,,17,,2h[8:1]/6h[8:1],,2h[8:1]/6h[8:1],,3h[8:1]/7h[8:1],,3h[8:1]/7h[8:1],,4/6-8[8:1]b,
{8},5-3[8:1]b,,6^8[8:1]b,,5-2[8:1]b,,6pp1[2:1]b,,2,,2,,3,,24,
{8},3h[8:1]/4h[8:1],,3h[8:1]/4h[8:1],,3h[8:3]/5h[8:3],,,,3h[8:1]/4h[8:1],,2h[8:3]/4h[8:3],,,,1v7[8:1]b/5v3[8:1]b,
{8},,,{4}4v2[8:1]b/8v6[8:1]b,,4-1[8:1]b/5-8[8:1]b,{8}A4/A5/E5f,,,18,18,,3b/6b,
{8},2-6[8:1],2,8-4[8:1],8,1-5[8:1],1,7pp4[8:3],7,4,,3,3,,24,2-5[8:1]/4-8[8:1],
{8},2x/4x,,5-1[8:1]/7-4[8:1],,5x/7x,,24,,A7/A8/B7/B8/D8f/E8,A5/A6/B5/B6/D6f/E6,A3/A4/B3/B4/D4f/E4,A1/A2/B1/B2/D2f/E2,,,8^5[4:1],
{8},5^2[4:1],,2^7[4:1],,7^4[4:1],,4>8[4:1],,8<4[4:1],,4>8[4:1],,8,,4,
{8}4,,26,6/2-6[8:1],,2b/7-3[8:1],,1/7b,,{16}2,4,2,,7,5,7,,{8}18,,5-1[8:1]b/6-2[8:1]b,
{8},5b/6b,,3-7[8:1]b/4-8[8:1]b,,3b/4b,,5-8[8:1]b/6-1[8:1]b,,5-2[8:1]b/6-3[8:1]b,,,,,3x/4x,3-8[8:1]/4-7[8:1],
{8},,,{4}5-2[8:1]/6-1[8:1],,34,2-7[8:1]/6-3[8:1],{8}2b/6b,,,1x/5x,5x/1x-5[8:1],
{8},1/8-6[8:1],,8/2-4[8:1],,2/8-4[8:1],,8/1-3[8:1],,1/8w4[8:1]b,,8,,2x/6x,,4,
{8}3-7-1[4:1],,6,5,4,,45,45,,2b/7b,3b/6b,2b/7b,3b/6b,,1b/8b,1b/8b,
{8},3,2^5[8:1],,6,7,8^5[8:1],,4,3,2,5,6,1^4[8:1],1,5,
{8}6,7,8^5[8:1],,4,3,2^5[8:1],,6,7h[4:1],,8pp1[4:1]*qq7[4:1],,,,,
{8},6,7^4[8:1],,3,2,1^4[8:1],,5,6,7,4,3,8^5[8:1],8,4,
{8}3,2,1^4[8:1],,5,6,7^4[8:1],,3,2,2,8,8,5,4,3-6[8:1]/7-2[8:1],
{8},3b/7b,
E


Re:MASTER


名前:
コメント:

タグ:

+ タグ編集
  • タグ:
最終更新:2026年09月12日 10:58