BASIC
ADVANCED
EXPERT
MASTER
(115){1},
{8}2^4[8:1]/4,,5,,4/6^4[8:1],,3,3,2^4[8:1]/4,,5,,4/6^4[8:1],4,3,3,
2^4[8:1]/4,,5,,4/6^4[8:1],,3,3,2^4[8:1]/4,,5,,4/6-1[8:1],,3-8[8:1]/6,,
3/7^5[8:1],,4,,3^5[8:1]/5,,6,6,7^5[8:1],4^2[8:1],,,5-8[8:1],1,8,,
7^5[8:1],,4,,3^5[8:1]/5,,6,7,4/8w4[8:3]b,,,,,,2h[16:3]/6h[16:3],,
3b/5b,{16}7,7-4[8:1],,4,4-1[8:1],,1,1-6[8:1],,6,6,,3,,{4}2<6v4[4:1],5,7>3v5[4:1],4,
{16}1,,2,2-5[8:1],,5,5-8[8:1],,8,8-3[8:1],,3,3w7[4:1],,{1}5,{8}34,
3b/4bh[8:1],3,3/4h[8:1],3,3h[8:1]/4h[8:1],{16},2h[8:1]/5h[8:1],,,34,,5h[8:1]/6,,6,,5h[8:1]/6,,6,,5h[8:1]/6h[8:1],,,4h[8:1]/7h[8:1],,,56,,
3/4h[8:1],,3,,3/4h[8:1],,3,,3h[8:1]/4h[8:1],,,2h[8:1]/3h[8:1],,,34,,5h[8:1]/6,,6,,5h[8:1]/6,,6,,5h[8:1]/6h[8:1],,,6h[8:1]/7h[8:1],,,78,,
1bh[8:1]/8bh[8:1],,,,2h[8:1],,3-8[16:1],3,,35,,,7h[8:1],,6-1[16:1],6,,46,,,2h[8:1],,3^8[16:1],3,,35,,6,6,,57,,
1bh[8:1]/8bh[8:1],,,,7h[8:1],,6-1[16:1],6,,46,,,2h[8:1],,3-8[16:1],3,,35,,,7h[8:1],,6^1[16:1],6,,46,,2x,,7x/8x,,4x/5x,
4bh[8:1]/5bh[8:1],,,,6h[8:1],,7-4[16:1],7,,17,,,3h[8:1],,2-5[16:1],2,,28,,,6h[8:1],,7^4[16:1],7,,17,,2,2,,13,,
4bh[8:1]/5bh[8:1],,,,3h[8:1],,2-5[16:1],2,,28,,,6h[8:1],,7-4[16:1],7,,17,,,3h[8:1],,2^5[16:1],2,,28,,6,6,,47,,
5h[16:7]/8h[2:1],,,,,,,,4,7,3,6,2,15,,48,{4}4-7[8:1]/8-3[8:1],4^1[8:1]/8^5[8:1],4b/8b,,
2^4[8:1]/4,5,{8}4/6^4[8:1],4^6[8:1],3,,2^4[8:1],,5,,4/6^4[8:1],4^6[8:1],3,,
2-5[8:1],{16}1,8,2,,,,4/7-4[8:1],,8,1,{8}7,,25,36,57,36,2-6[8:1]/4-8[8:1],,24,,
7^5[8:1],,4,,3^5[8:1]/5,5^3[8:1],6,,7,26,37,{16}2x/6x,2x/6xv1[8:1],,6v3[8:1],{8},,,
7^5[8:1],,4,,3^5[8:1]/5,,6,7,4/8w4[8:3]b,,,,,,2h[16:3]/6h[16:3],,
3b/5b,{16}2,2-5[8:1],,5,5-8[8:1],,8,8-3[8:1],,3,3,,6,,{4}7>3v5[4:1],4,2<6v4[4:1],5,
{16}8,,7,7-4[8:1],,4,4-1[8:1],,1w5[8:1],1,{8},,,3-7[8:1]/7-3[8:1],,,,1b-5[8:1],7b-3[8:1],1b,7b,
{4}2x,8<4[8:1],58,1>5[8:1]/E6/B5/B6,14,8<4[8:1]/E4/B3/B4,68,1>5[8:1]/E6/B5/B6,
13,8<4[8:1]/E4/B3/B4,78,1>5[8:1]/E6/B5/B6,12,8-4[8:1]/E2/B1/B2,6-3[8:1]/8,2-7[8:1]/6,
2x/7x,8<4[8:1],58,1>5[8:1]/A6/E6/E7,14,8<4[8:1]/A3/E3/E4,68,1>5[8:1]/A6/E6/E7,
13,8<4[8:1]/A3/E3/E4,78,1/A6/E6/E7,3<8p2[2:1]/Cfh[4:3],,,,
{8}1b/8b-4[8:1],7,6-1[8:1]/8,5,4^7[8:1]/6,3,24,,1-5[8:1]/8,2,1/3-8[8:1],4,3/5^2[8:1],6,57,,
1/8-4[8:1],6,5-1[8:1]/8,7,5/8p2[8:1],6,58,,1-5[8:1]/8,3,1/4pp8[4:1],2,14,2,3,,
1b-6[8:1]/7b,2-5[8:1]/8,13,2,8-3[8:1],1/7-4[8:1],68,7,1-6[8:1],2-5[8:1]/8,14,2,8-3[8:1],17,58,4,
2/5-2[8:1],4/6-1[8:1],57,6,4,56,4-2[8:1]/5-2[8:1],,4-7[8:1]/5-7[8:1],,4^2[8:1]/5-2[8:1],,4-7[8:1]/5^7[8:1],,45,,
1-3[8:1]b,8-4[8:1]b,1-5[8:1]b,8-6[8:1]b,1^4[8:1]b,8^5[8:1]b,1-4-8[8:1]b*-5-8[8:1],8,{1},E
Re:MASTER
最終更新:2026年08月01日 14:36