BASIC
ADVANCED
EXPERT
MASTER
(154)
{1},
{2}1b-5[8:3]/2h[8:15],,6h[8:7],,1h[4:1]/7h[4:1],
{8}2/8,,1/7,1/7h[4:1],,3h[8:1],5h[8:1],1h[8:1],8,8,Cf,,
{4}8x/B4/E4,1x/B6/E6,8x/B4/E4,1x/B6/E6,8x/B4/E4,1x/B6/E6,8x/B4/E4,1x/B6/E6,8x/B3/B4/E4,1x/B5/B6/E6,8x/B3/B4/E4,1x/B5/B6/E6,8x/B3/B4/E4,1x/B5/B6/E6,8x/B3/E4,
{16}5x,4x,5x,,
{8}1/6,2,3/8,7,1h[8:1]/6h[8:1],,3h[8:1]/8h[8:1],,1/6,2,3/8,7,1h[8:1]/6h[8:1],,3h[8:1]/8h[8:1],,1/6,2,3/8,7,1h[8:1]/6h[8:1],,3h[8:1]/8h[8:1],,1/6,2/7,2b/7b,,
{16}4/5h[16:3],,,4,5,,3,,3h[16:3],,,4,2,,2,,6h[16:3],,,5,7,,7,,3h[16:3],,,4,2,,
{8}1,8,7,2/6,,1,2,
{16}3h[16:3],,,4,3,,
{8}5,6,7,8,1,2,3,4,5,6,
{16}6,5,7h[4:1],,,,
{8}1,1h[2:1],,3,4,5,2h[4:1],,8,8h[2:1],,6,5,4,7^2[4:1],,
{4}2^5[4:1],5,1,
{8}2b/7b,2b/7b,2b/7b,,
{16}5/4h[16:3],,,5,4,,6,,6h[16:3],,,5,7,,7,,3h[16:3],,,4,2,,2,,6h[16:3],,,5,7,,
{8}8,1,2,3/7,,8,7,
{16}6h[16:3],,,5,6,,
{8}4,3,2,1,8,7,6,5,4,3,
{16}3,4,2h[4:1],,,,
{8}8,8h[2:1],,6,5,4,7h[4:1],,1,1h[2:1],,4,5,6,7x-4[8:1]/8x-3[8:1],,,,
{16}2x/5x,,,1x/6x,,,
{8}7xh[8:3]/8hx[8:3],,,,,
{4}4x/5x,3x/6x,1x/2x,1x/2x,
{16}1x/2x,,,1x/2x,,,
{8}1x/2x,,1x/2x,1x/2x,1x/2x,1b/2b,,3b/6b,,8-5[8:1],8,2-6[8:1],2,
{16}1<5[4:1],,,5,,,
{8}3h[4:1],,4-7[8:1],4,1-5[8:1],
{16}1,,,8<3[4:1],,,
{8}Cf,,,1x-5[8:1],,6-2[8:1],,3<1[8:3],3h[2:1],,,,,,5,4,3,2h[2:1],4,5,6,7h[2:1],5,4,3,2h[2:1],4,5,6,7,,,3b/7b,2b/6b,,3b/7b,2b/6b,,3/7,,2/7,2/7,
{16}3,4,2,,6,5,7,,
{8}1/8,2b/7b,,4-1[8:1],4,7-3[8:1],7,
{16}8>4[4:1],,,4,,,
{8}6h[4:1],,5-2[8:1],5,8-4[8:1],
{16}8,,,1>6[4:1],,,
{8}Cf,,,8x-4[8:1],,3-7[8:1],,6>8[8:3],6h[2:1],,,,,,4,5,6,7h[2:1],5,4,3,2h[2:1],4,5,6,7h[2:1],4,3,2,1,1,2/6,6/2^5[8:1],,,7p3[8:1],,1s5[4:1],,7,7xh[4:1],,5xh[8:1],3xh[8:1],1xh[8:1],7xh[8:1],3xh[8:1],8b,,
{32}3xh[4:1]/8xh[4:1],,,,,,,,,2x/7x,1xh[16:3]/6xh[16:3],,,,,,,2x/7x,3xh[16:3]/8xh[16:3],,,,,,,2x/7x,1xh[16:3]/6xh[16:3],,,,,,,2x/7x,3xh[16:3]/8xh[16:3],,,,,,,2x/7x,1xh[16:3]/6xh[16:3],,,,,,,2x/7x,3xh[16:3]/8xh[16:3],,,,,,,2x/7x,1xh[16:3]/6xh[16:3],,,,,,,2x/7x,3xh[16:3]/8xh[16:3],,,,,,,2x/7x,1xh[16:3]/6xh[16:3],,,,,,,2x/7x,3xh[16:3]/8xh[16:3],,,,,,,2x/7x,1xh[16:3]/6xh[16:3],,,,,,,2x/7x,3xh[16:3]/8xh[16:3],,,,,,,2x/7x,1xh[16:3]/6xh[16:3],,,,,,,2x/7x,3x/8x,,,,,,
{4}2b/7b,6/2>6[2:1],7,8,8,3/7<3[2:1],2,1,1,4/6h[16:3],5/3h[16:3],4/6h[16:3],5/3h[16:3],
{12}6,5,7,3,4,2,8b,,,,,,
{4}2h[2:1],B2/B3,7h[2:1],B6/B7,1h[4:3],B1/B8,C,B4/B5,7h[4:1],5h[4:1],4h[4:1],1,
{8}2x/6x,3x/7x,2x/6x,B1/B2/E1,B1/B2/E1,,,,
{1}6x/1xh[4:14],B5/E6,B4/E4,C,
{4}B1,B2,B3,B4,B5,B6,B7,B8,E2/E8,E3/E7,E4/E6,
{8}4x/5x,4x/5x,,2b/7b,2b/7b,,,,3x/6x,,5-8[8:1],5,2-6[8:1],2,
{16}1<5[4:1],,,5,,,
{8}3h[4:1],,4v7[8:1],4,1-5[8:1],
{16}1,,,8<3[4:1],,,
{8}Cf,,,1x-5[8:1],,6-2[8:1],,3<1[8:3],3h[2:1],,,,,,5,4,3,2h[2:1],4,5,6,7h[2:1],5,4,3,2h[2:1],4,5,6,7,,,3b/7b,2b/6b,,3b/7b,2b/6b,,3/7,,2/7,2/7,
{16}3,4,2,,6,5,7,,
{8}1/8,2b/7b,,4-1[8:1],4,7-3[8:1],7,
{16}8>4[4:1],,,4,,,
{8}6h[4:1],,5v2[8:1],5,8-4[8:1],
{16}8,,,1>6[4:1],,,
{8}Cf,,,8x-4[8:1],,3-7[8:1],,6>8[8:3],6h[2:1],,,,,,4,5,6,7h[2:1],5,4,3,2h[2:1],4,5,6,7h[2:1],4,3,2,1,1,2/6,2h[4:1]/6h[4:1],,,8-4[8:1],,3h[4:1],,7,7h[4:1],,5h[8:1],3h[8:1],1h[8:1],7h[8:1],3>6[2:1],8,8b,,,,,,
{4}Chf[4:5],,,,,
{8}1b,{1},
{16}4x/5xh[16:3],,,4x,5x,,
{8}3x/6x,3xh[8:1]/6xh[8:1],,2b/7b,,
{32}1xh[4:1]/6xh[4:1],,,,,,,,,2x/7x,3xh[16:3]/8xh[16:3],,,,,,,2x/7x,1xh[16:3]/6xh[16:3],,,,,,,2x/7x,3xh[16:3]/8xh[16:3],,,,,,,2x/7x,1xh[16:3]/6xh[16:3],,,,,,,2x/7x,3xh[16:3]/8xh[16:3],,,,,,,2x/7x,1xh[16:3]/6xh[16:3],,,,,,,2x/7x,3xh[16:3]/8xh[16:3],,,,,,,2x/7x,1xh[16:3]/6xh[16:3],,,,,,,2x/7x,3xh[16:3]/8xh[16:3],,,,,,,2x/7x,1x/6x,,,,,,
{8}3x/8x,3x/8x,,1x/6x,1x/6x,,
{4}3xh[16:3]/8xh[16:3],,,
{32}E6,B5,B4,E4,
E
Re:MASTER
最終更新:2026年07月24日 05:48