BASIC
ADVANCED
EXPERT
(145)
{4}Cf,,,,6h[4:1],5,4/7,,3h[4:1],4,2/5,,6h[4:1],,4/7,,5h[4:1],4,2/7,,3h[4:1],4,2/5,,6h[4:1],5,4/7,,3h[4:1],4,2/5,,4h[4:1],5,2b/7b,,3h[4:1],4,6h[4:1],5,3h[4:1],4,1,1,6h[4:1],5,3h[4:1],4,6h[4:1],5,8,2/7,3h[4:1],4,6h[4:1],5,4/5,2/7,1/8,3/6,
{8}2/7,2/7,2/7,,
{4}1/8h[4:1],1q5[4:1],,,4/5,3b/6b,7h[4:1],5,2h[4:1],4,7h[4:1],5,8,1,2h[4:1],4,7h[4:1],5,2h[4:1],4,
{8}1/8,1/8,2/7,,
{4}3h[4:1],5,6h[4:1],4,3h[4:1],5,2/7,2/7,
{8}1/8,1/8,1/8,,
{4}2/4,5/7pp4[2:1],,,,,B5/B6,B4,B3,B5/B6,B4,B3,1x,1x,B3/B4,B5,B6,B3/B4,B5,B6,8x,8x,6/5h[2:1],,
{2}4h[2:1],3h[2:1],6,
{4}5/6,7/8,1/2,3/4,1/8,4/5,2b/7b,,7/8,2/5,
{8}1,1,2/8,,1/2,,4/7,,8,8,1/7,,
{4}2h[4:1],4h[4:1],5h[4:1],7,2/4,4/5,2x/7x,,1/2,4/7,
{8}8,8,1/7,,7/8,,2/5,,1,1,2/8,,
{4}1/7,,4/5,3/6,2b/7b,,,,6h[8:7],,B5,B4,3h[4:3],,B4,B5,6h[4:3],,B5,B4,2/7,,8,8-5[4:1],,,1/8,1-4[4:1]/8-5[4:1],,,B4,B5,B6,B7,B8,
{8}E1,,,1>6[8:3],,,,,,,
{4}3h[4:3],,B4,B5,6h[4:3],,B5,B4,3h[4:3],,B4,B5,2/7,,3,3,2h[4:1]/4h[4:1],,6,6,5h[4:1]/7h[4:1],,8,1,2h[4:3]/7h[4:3],,,,Cf,,,,5/6,3/8,
{8}1,1,2/8,,3/4,,1/6,,8,8,1/7,,
{4}6h[4:1],8h[4:1],1h[4:1],3,4/5,1/8,2x/7x,,3/4,1/6,
{8}8,8,1/7,,5/6,,3/8,,1,1,2/8,,
{4}1x/7x,,4/5,3/6,2/7,,4/6,3/5,2/6,,2/8,1/7,2h[2:1]/8h[2:1],,,3/6,
{8}Ch[8:17],
E
MASTER
(145)
{1}Cf,
{4}57,45,E1/B1/B2/E3,,42,54,E1/B8/B7/E7,,57,45,E1/B1/B2/E3,,42,54,E1/B8/B7/E7,,
16,57,E2/B2/B3/E4,,83,42,E8/B7/B6/E6,,16,57,E2/B2/B3/E4,,83,42,E8/B7/B6/E6,,
{8}7h[4:1]/5,5,5,,2h[4:1]/4,4,4,,{4}45,36,E8/B8/B1/E2,E6/B5/B4/E4,
{8}2h[4:1]/1,1,1,,7h[4:1]/8,8,8,,{4}45,7^4[8:1]/8^3[8:1],,16,
{8}7h[4:1]/5,5,5,,2h[4:1]/4,4,4,,{4}45,45,E8/B8/B1/E2,E6/B5/B4/E4,
1-5[8:1]/8-4[8:1],,{8}27,27,27,,{16}1,8,,8,{8}1,1,18,27,3b/6b,,
2h[4:1]/4,4,4,,7h[4:1]/5,5,5,,{4}56,12,E1/B8/B7/E7,E3/B3/B4/E5,
{8}7h[4:1]/5,6,6,,2h[4:1]/4,3,3,,{2}4^1[8:1]/5^8[8:1],{8}27,27,27,,
2h[4:1]/4,3,4,,7h[4:1]/5,6,5,,{4}45,1-5[8:1]/8-4[8:1],,27,
{8}46,46,35,35,{4}47,2<4[2:1]/5,4,,,3b/6b,
6h[2:1]/5,4,5,2h[2:1]/1,8,1,B2/B3/E4,B7/B6/E6,
3h[2:1]/4,5,4,7h[2:1]/8,1,8,B7/B6/E6,B2/B3/E4,
{2}5>1[4:1]/6,4<8[4:1],5>1[4:1],4<8[4:1],
{8}1,,18,18,{4}27,27,4x/5x,1x/8x,E4/B3/B4/B5/B6/E6,,
48,2^7[8:1]/6^3[8:1],,15,{8}78,6,45,3,12,3,45,,
{4}3/7-4[8:1],2-6[8:1],8-4[8:1],1>7[4:1],8,8,2x/7x,,
51,7^2[8:1]/3^6[8:1],,84,{8}45,3,12,3,45,6,78,,
{2}26,4^1[8:1]/5^8[8:1],{4}27,18,36,45,
6h[4:1],8h[4:1],1h[4:1],3h[4:1],6,45,3h[4:1],1h[4:1],
8h[4:1],6h[4:1],3,45,27,,6h[4:1]/5,5,
E1/B1/B2/E3,,3h[4:1]/4,4,E1/B8/B7/E7,,7h[4:1],5h[4:1],
4h[4:1],2h[4:1],1h[4:1],8<1[2:1],1,,,45,
{8}7,7,5,5,6,6,4,4,{4}36,45,18,36,
{8}2,2,4,4,3,3,5,5,{4}36,45,56,4^1[4:1]/7^4[4:1],
,,34,5^8[4:1]/2^5[4:1],,,45,18,
{1}1^4[2:1]/8^5[2:1],{16}5,4,,4,{8}5,5,1x/8x,2x/7x,3x/6x,,
{4}51,7^2[8:1]/3^6[8:1],,84,{8}21,3,54,6,87,6,54,,
{4}6/2-5[8:1],7-3[8:1],1-5[8:1],8<2[4:1],1,1,E1/B1/B8/B4/B5/E5,,
48,2^7[8:1]/6^3[8:1],,15,{8}78,6,45,3,12,3,45,,
{4}37,18,{2}4^1[8:1]/5^8[8:1],27,{4}27,45,
{2}E8/B8/B7/B3/B4/E4,E2/B2/B1/C/B5/B6/E6,
{16}6,5,6,5,6,,3,4,3,4,3,,45,,,,{1}E3/B2/B3/Chf[8:17]/B6/B7/E7,,,,E
Re:MASTER
- MASTER譜面を追加しました。修正等ありましたらよろしくお願いします。 -- けもがみ (2026-04-12 08:46:41)
最終更新:2026年06月28日 09:20