アットウィキロゴ

独りんぼエンヴィー

アーティスト koyori(電ポルP)

BPM BASIC ADVANCED EXPERT MASTER Re:MASTER
132 1 6 8 12+ -

EXPERT MASTER Re:MASTER
譜面制作者 はっぴー メロンポップ -

BASIC


ADVANCED


EXPERT

(132)
{4}6h[2:1],,5,4,3h[2:1],,4,5,6,6,5,4,3,3/4,6,5/6,7<4[4:1],,3,3,2>5[4:1],,6,6,4h[4:1]/7h[4:1],,3,3,2xh[4:1]/5xh[4:1],,3/4,3/4,2>5[4:1],,6,6,7<4[4:1],,3,3,2h[4:1]/5h[4:1],,6,6,4xh[4:1]/7xh[4:1],,5/6,5/6,
{8}7,7,5,,4/6,,3,3,4,,
{4}2/5,2/5,6h[4:1],5,5,4/7,8,8qq8[8:3],,,,7h[4:1],5,2h[4:1],4,6h[4:1],5,4/7,
{8}3,3,5,,
{4}7,8z4[8:3],,,,3,3/4,
{8}2,2,4,,3/5,,7,7,5,,
{4}4/6,4/6,7h[4:1],8,5/6,3/4,3/4,2-7[4:1]/6-3[4:1],,,1x/8x,6h[4:1],5,4,
{8}3,3,4,,3/5,,3/5,,6,6,4,,
{4}2h[4:1],4h[4:1],5h[4:1],7h[4:1],1,2/6,2b/6b,7h[4:1],
{8}8,8,,5/6,,3h[4:1],,4,4q8[4:1],,,,,,2h[4:1],,1,1,,3/8,,7h[4:1],,5,5,,
{4}4/8,4/8,2h[4:1],
{8}4,4,,3/6,,7h[4:1],,5,5,,
{4}4/6,3h[4:1],1h[4:1],8h[4:1],6h[4:1],
{8}5<4[8:5],,,{1},{8}4/5,5/4q5[2:1],,,,,,6h[8:3],,,5,5,,
{4}4/6,3>8[4:1],,7<4[4:1],,
{8}3h[8:3],,,4,4,,
{4}3/5,2,1/2,7,7/8,
{8}6h[8:3],,,5,5,,
{4}4/6,3>8[4:1],,7<4[4:1],,
{8}3h[8:3],,,1,1h[8:3],,,8,8,,
{4}2x/7x,3x/6x,3x/6x,1h[4:1],2h[4:1],3h[4:1],4h[4:1],5q4[8:3],,,,6,5/7,3,2/4,1/2,1<6[4:1]/2>5[4:1],,,5h[4:1],6h[4:1],7h[4:1],8h[4:1],1,1-4[4:1]/8-5[4:1],,,3,2/4,6,5/7,5/6,5>2[4:1]/6<1[4:1],,,
{8}8,8,1,,
{2}2/7,6h[1:2],C,
{4}E8,E1,E2,,3h[1:2],,C,,E2,E1,E8,,6,6,6,6,5,5,5,5,4,4,4,4,3,3,3h[4:1],4b,2/5-8[4:1]b,,1h[4:1],8x,3x/6x,E6,E4,B4/B5/Cf,1x/8x,
{8}7,7,8,,2,2,1,,
{4}3/8,3b/8b,5/6,7h[4:1],
{8}8,8,,1/6,,2h[4:1],,1,1,,
{4}3/8,7h[4:1],5h[4:1],4h[4:1],2h[4:1],
{8}1>8[8:5],,,{1},{8}1/8,1/8,,
{4}5/7,4/5,4b/2bh[4:1],4h[4:1],5h[4:1],7h[4:1],8h[4:1],1h[4:1],2,3/5,7h[4:1],5h[4:1],4h[4:1],2h[4:1],1h[4:1],8h[4:1],7,4/6,6h[4:1],8h[4:1],1h[4:1],3h[4:1],4h[4:1],5h[4:1],6,4/7,3h[4:1],1h[4:1],8h[4:1],6h[4:1],5h[4:1],4h[4:1],3,2/5,6p4[2:1],,,,C,,,,
E

MASTER

(132){8}4h[4:3]/6h[4:1],,,7<5[8:1],7,,,3,5h[4:3]/3h[4:1],,,2>4[8:1],2,,,7,4h[4:1]/7h[4:1],,,2/5,5h[4:1]/2h[4:1],,,,4h[4:1]/7,,3h[4:1],,2-4[8:1],,6,,4/8,3,2/6,1,1/5,6,7/3,8,4/8,3,2/6,1,1-5[4:1]/5,,5<1[4:1],,1>4[4:1],,6,,7h[4:1],,,B2/B6,B7/B3,,,E4/E8,E3/E7,,1h[4:1],,5,6,7/3,8,4/8,3,2/6,1,1/5,6,3/7,8,8-4[4:1]/4,,4>8[4:1],,8<5[4:1],,3,,2h[4:1],,,E4/E8,E3/E7,,,E6/E2,E7/E3,,4,,

{8}5h[4:1]/7,,6,,4h[4:1]/2,,3,4x,5hx[4:1]/7x,,6,,2q6[8:1]/4,,,,5h[4:1]/7,,6,,2/4,,1,1x,8xqq8[4:1],,1,2,3,,2/8,,4h[4:1]/2,,3,4,5h[4:1]/7,,
6,5x,4hx[4:1]/2x,,3,4,5/7<5[8:1],,4,4,3h[4:1]/5h[4:1],,,4/7,4h[4:1]/7h[4:1],,,3pp6[8:3]/6,,7,7,,8,,3/7,,4/6v1[4:1],,4,3,2>5[4:1],,8,7,6q2[4:1],
,5,4,3,,3qq8[8:3]/4,,4,5,6pp1[8:3],,5,4,3,,2-6[8:1],,2/8-4[8:1],,5/8,,3h[4:1],,7x<4[4:1],,1,2,3x>8[4:1],,5,6,7x<4[4:1],,1,2,3,,2-6[8:1]/6,,2/5<8[8:1],,3/5>2[8:1],,5/7,,2/6,2/6,,7/3,7v8[8:1]/3v4[8:1],,{16}3/7,Cf,,,{8}1x-5[8:1]/7x,,

{8}1/8,7-3[8:1],6,5/7,4,3,2-6[8:1],1,2/8-4[8:1],7,1w5[8:1]/8,2,1,,3/7,,3/8,4,5/7,6,2/5,3,4/8,7h[4:1],,{16}8,1,{8}2,8,B6/B5f/B4,,2/8-4[8:1],,1/8,2-6[8:1],3,2/4,5,6,7-3[8:1],8,1-5[8:1]/7,2,1/7p3[8:1],8,1/7,,2/8-4[8:1],,3-5[8:1]/8,,7-1[8:1]/3,,2-6[8:1]/7,,2/6<4[8:5],7,8,,5h[4:1],,,5,5h[4:1],,,3/6,4h[2:1]/7-1-5-3[2:1],,,,,,

{8}2,,,4/6,4/6,,E5/E6,,4h[4:1]/5,,2>4[8:1],,,,5/6,,4h[4:1]/7h[4:1],,,4/6,4/6,,E6/E5,,6h[4:1]/5,,7h[4:1],,8<6[8:1],8,,,2h[4:1]/5h[4:1],,,
5/3,5/3,,E4/E5,,4h[4:1]/5,,3h[4:1],,2h[4:1],,,2/4,2h[4:1]/4h[4:1],,,7/5,7h[4:1]/5h[4:1],,,2,2q6[4:1],,6q2[4:1],,2,,6,,
1h[4:1],,2,2h[8:1],3h[4:1],,4,4h[8:1],{1}5>5[2:1]*<5[2:1],{4}4>1[8:1],B4,3<6[8:1],B4,2h[4:1],{8}3,4,5,B1/B2,B1/B2,,{4}5h[8:1]/6h[8:1],4h[8:1]/7h[8:1],3h[8:1]/8h[8:1],1h[8:1]/2-5[8:1],1-6[8:1],4,{8}5,B1/B2,B1/B2,,{4}4h[4:1],3h[4:1],2h[4:1],{8}1-5[8:1],1,8-4[8:1],8,7,,6h[4:1],,3,,{8}4x/5x,4x/5x,4x/5x,4x/5x,{4}4x/5x,7h[4:7],

{4}2v5[4:1],,,,1>4[4:1],,,3h[4:7],8<4[8:3],,,,7v4[4:1],,,5h[1:2],1,1,1,1,2,2,2,2,{8}3,3,5,5,7,7,1,1,3h[4:1],,5h[4:1],,7x>3[4:1],,,,,,{16}5,4,5,4,{4}5bpp5[4:1]b*qq5[4:1]b,,,2b/8b,{16}2b/8b,,8,1,2bx/7bx,,,,2/7,,6,5,7,,3,4,2,,6,5,8,,3,4,1,,6,4,8b,,4b/5b,,{8}1b/7b,,2/7V51[4:1]b,,1/7,2-6[8:1],3,2/4,5,3-8[8:1]/7-4[8:1]b,,3b/7b,,1/5,2xq6[8:1]/6xq2[8:1]b,,{16},Cf,,,{8}1,,3/7-3[8:1]b,,7/1-6[8:1],,1/8-4[8:1]b,,4>5[2:1]b/8,3,2,,4bx,,,4bx,4bxh[4:1],,,5x,5x/2,3/6,3,4/7,5/8,,

{4}4h[4:7]/8-3[8:1],8,8-6[8:1],8,8>3[8:1],8p6[4:1],8,,5h[4:7]/1-6[8:1],1,1-3[8:1],1,1<6[8:1],1q3[4:1],1,,4h[4:7]/8>3[8:1],8<5[8:1],8-2[8:1],8-5[8:1],8-3[8:1],8p6[4:1],8,,3/7h[4:1],5h[4:1],3h[4:1],1h[4:1],{8}7,2/6,3qq6[8:3]/5,,,,,,7,,,6,5h[2:1],,B1,,C,E

Re:MASTER


  • MASTER譜面を追加しました。修正等ありましたらよろしくお願いします。 -- Sugar (2026-07-01 21:54:43)
  • EXPERT譜面を追加しました。 -- やさいたち/Yasaitachi @yasaitachi_0130 (2026-07-18 08:48:42)
名前:
コメント:

タグ:

+ タグ編集
  • タグ:
最終更新:2026年07月18日 08:48