| アーティスト |
Masayoshi Minoshima Remixed by 小室哲哉 |
BASIC
ADVANCED
EXPERT
MASTER
(135)
{16}38,,,47,,,6/5-3-1-7[4:3],,,,,,,,,,
{1},
{16}56,,,47,,,3h[8:5]/8-6-3[4:3],,,,,,,,,,
{1},
{16}37,,,26,,,1-3-5[4:3]/5-7-1[4:3],,,,,,,,,,
{1},
{16}36,,,27,,,1-7[8:1]/8-4[8:1],,,,,,,,,,
{2}1v4[8:1]/8-5[8:1],5-8[8:1]/4z8[8:1],
{16}1hx[8:1],,3,2h[8:1],,4,3h[8:1],,4,,45,,7h[8:1],,5,6h[8:1],
{16},4,5h[8:1],,3,,34,,E2,E5,E3,E6,E4,E7,D5,,
{16}8h[8:1],,6,7h[8:1],,5,6h[8:1],,5,,54,,2h[8:1],,4,3h[8:1],
{16},5,4h[8:1],,6,,65,,E8,E5,E7,E4,E6,E3,D5,,
{16}2,,4,3,,5,4,,7,,57,,3,,5,4,
{16},6,5,,7,,57,,E2,E5,E3,E6,E4,E7,D5,,
{16}7,,5,6,,4,5,,2,,42,,6,,4,5,
{16},3,4,,2,,42,,25,,26,,27,,28,,
{8}1-3[8:1],1-7[8:1],,,4-6[8:1],4-2[8:1],,,
{8}7-1[8:1],7,7pp3[8:3],,,,,,
{8}8-6[8:1],8-2[8:1],,,5-3[8:1],5-7[8:1],,,
{32}1h[8:1],,,,3h[8:1],,,,5h[8:1],,,,7,,,,B8,B7,B6,B5,B4,B3,B2,B1,A8,A7,A6,A5,A4,,,,
{8}8-6[8:1],8-2[8:1],,,5-3[8:1],5-7[8:1],,,
{8}2-8[8:1],2,2q7[8:3]*>6[8:3],,,,,,
{8}1-3[8:1],1-7[8:1],,,4-6[8:1],4-2[8:1],,,
{8}7,6,5,4,3-8[8:1]/6-4[8:1],36,3x/6x,,
{8}8x/5hx[8:1],1,2/6h[8:1],3,7h[8:1]/3<6-2<8z4[8:9],,8h[8:1],,
{8}1h[8:1],,8h[8:1],,7,7,7,,
{8}8/3h[8:1],7,6/2h[8:1],5,1/4-2[8:1]*-8[8:1],,,,
{8}1-3[8:1],1-6[8:1],1>4q5[2:1],1x,1x,,,,
{8}1,8,7/3h[8:1],6,2h[8:1]/6>3-7>1s5[8:9],,1h[8:1],,
{8}8h[8:1],,1h[8:1],,2,2,2,,
{8}1/6h[8:1],2,3/7h[8:1],4,5-1[8:1]/8-4[8:1],,58,,
{8}23,23,18,18,67,67,5b/8b,,
{8}3h[8:3],,B2,4h[8:3],,B3,5h[8:3],,
{8}B4,6h[8:3],,B5,7h[4:1],,8h[4:1],,
{8}3h[8:3],,E3,4h[8:3],,E4,5h[8:3],,
{8}E5,6h[8:3],,E6,7,6,5,4,
{8}3h[8:3],,B4,2h[8:3],,B3,1h[8:3],,
{8}B2,8h[8:3],,B1,7h[4:1],,5h[4:1],,
{8}3h[8:3],,E4,2h[8:3],,E3,1h[8:3],,
{8}E2,8h[8:3],,E1,7,8,1,2,
{16}35,,,5/7>4qq8[16:17],,,B2/B3/E3,,,,,,,,,,
{1},
{16}64,,,4/2<5pp1[16:17],,,B7/B6/E7,,,,,,,,,,
{1},
{16}35,,,5/7>4qq8[16:17],,,B2/B3/E3,,,,,,,,,,
{1},
{16}64,,,4/2<5p3[16:25],,,C,,,,,,,,,,
{1}1p7b[4:3],
{4},,,1b/8b,
{8}6/3-6-8-4[8:3],47,3/6h[4:1],,,,5/3-6[8:1],24,
{8}1h[2:1]/3-7[8:1],,3-8[8:1],,3,,36,47,
{8}3/6-3-1-5[8:3],52,6/3h[4:1],,,,3>8[8:1]/7<4[8:1],37,
{8}3-6[8:1]/7-2[8:1],,37,,15,15,27,27,
{8}3/6-3-1-5[8:3],52,6/3h[4:1],,,,4/6-3[8:1],75,
{8}8h[2:1]/6-2[8:1],,6-1[8:1],,6,,63,52,
{8}1h[8:1],3h[8:1],5h[8:1],7h[8:1],8-4[8:1],1-3[8:1],8,1,
{8}7,6/8-4b[8:1],5/1-3b[8:1],8b,1bw5b[8:1],,1b,,
{8}3q5[4:1]/6<2[4:1],47,36,,,,4>1[8:1]/8<5[8:1],37,
{8}4-8[8:1]/8-4[8:1],,4-1-3[4:1]/8-5[8:1],,48,,4,5,{8}6p4[4:1]/3>7[4:1],52,63,,,,2<7[8:1]/6>3[8:1],3-6-1[4:1]/7-2-5[4:1],
{8}26,,,,4x/8x,3x/7x,2x/6x,1x/5x,
{8}3xq5[4:1]/6x<2[4:1],47,36,,,,4>1[8:1]/8<5[8:1],37,
{8}4-8[8:1]/8-4[8:1],,8-5-7[4:1]/4-1[8:1],,48,,8,18,
{8}12,34,56,78,1-6b[8:1]/2-5b[8:1],34,1b/2b,,
{8}38,1-6[8:1],2-5[8:1],1,2,,4b/7b,,
{16}8>2-7-3-6>4[4:5],,5h[8:1],,,,4,4,,,3h[8:1],,,,2,2,
{16},,1h[8:1],,,,8,8,,,47,,58,,1/6>4-7-3-8>2[4:5],,
{16},,2,,2,,2,2,,,4,,4,,4,4,
{16},,6,,6,,6,6,,,48,,37,,6/2h[8:5],,
{4}E5,E4,B1,E4,
{4}E5/6h[2:1],E6,B8,E6,
{4}E5/4h[2:1],E4,B1,E4,
{8}E5/5h[2:1],,7>3[8:1],,,,B5/E6,B8/E8,
{1},,,,E
Re:MASTER
最終更新:2026年04月09日 19:37