アットウィキロゴ

グリーンライツ・セレナーデ

アーティスト Omoi feat. 初音ミク

BPM BASIC ADVANCED EXPERT MASTER Re:MASTER
200 3 7 10 12+ -

EXPERT MASTER Re:MASTER
譜面制作者 華火職人 はっぴー -

BASIC


ADVANCED


EXPERT

(200)
{4}4h[4:7],5,,5,,5,,5,5h[2:3],4,,4,4,4,4,2x/7x,4/5,
{8}2,2,,
{4}1/7,1/7,5/6,5/6,
{8}3,3,,4/5,,7,7,,
{4}2/8,2/8,3/4,3/4,
{8}6,6,,4/5,,2,2,,
{4}1/7,1/7,5/6,5/6,
{8}3,3,,4/5,,7,7,,2/8,,2-5[8:3]/8-5[8:3],,,,,,,
{4}1b,B8,B7,B6,B5,B4,B3,B2/C,,B1,B2,B3,B4,B5,B6,B7/C,,E4,B3,B2,E2,E6,B6,B7,E8,B1/B8,,
{2}B4/B5,Cfh[2:1],,
{4}6,5/6,6,6/8,6,4/6,6,4/5,3,3/4,3,1/3,3,3/5,3,4/5,6h[4:1],7h[4:1],8,1/8,2h[4:1],3h[4:1],4,4/5,3/4,3/4,5/6,5/6,
{8}4x/5x,4x/5x,4h[4:1]/5h[4:1],,,,
{4}1b/8b,2b/7b,3/4,
{8}6,6,1>5[8:3],,8,,,7x,7x,,
{4}4/6,3/4,1/2,7/8,5/6,3b/7b,
{8}5,5,,2,2,,
{4}7h[1:1],8,1,2,3h[4:3],4,5,6,7h[4:1],5h[4:1],4h[4:1],
{8}2,2,,4x/5x,4x/5x,,
{4}B3/B6/Cf,,1b/8b,5/6,
{8}3,3,8<4[8:3],,1,,,2x,2xh[4:1],,
{4}1,7/8,5/6,3/4,1/2,3b/7b,
{8}1,1,,6,6,,
{4}2h[1:1],1,8,7,6h[4:3],5,4,3,2h[4:1],4h[4:1],5h[4:1],
{8}7,7,,1x/8x,1x/8x,,
{4}4/5,3/6,2h[4:1],4,
{8}7,7,5,,
{4}2/4,3/5,4/6,5/7,7h[4:1],8,
{8}2,2,1,,
{4}8-4[4:1],,1b,,7h[4:1],5,
{8}2,2,4,,
{4}5/7,4/6,3/5,2/4,1/8,6/A3f,
{8}4x/5x,4x/5x,4x-1[4:1]/5x-8[4:1],,,,,,
{4}2b/7b,,1/8,
{8}3,5,4,,1/8,,2/7,,6,4,5,,
{4}1/8,2h[2:1],4,7h[4:1],5,
{8}1,8,1,,
{4}3b/6b,,4/5,
{8}7,1,8,,4/5,,3/6,,2,8,1,,
{4}4/5,6h[4:1],8h[4:1],1h[4:1],3,
{8}5,4,5,,
{2}2b/7b,4h[1:1],B4,5h[1:1],B5,4h[1:1],B3,5h[1:1],B6,4h[4:7],,8h[4:3],,
{4}4/8,3/7,2/6,1-4[4:1]/5-8[4:1],,,3b/7b,,3/6,7/8,
{8}2,2,5<1[4:1],,4,,,3x,3x,,
{4}2/8,7/8,5/6,3/4,1/2,3b/7b,
{8}5,5,,2,2,,
{4}6h[1:1],7,8,1,2h[4:3],1,8,7,6h[4:1],8h[4:1],1h[4:1],
{8}3,3,,4x/5x,4x/5x,,
{4}B3/B6/Cf,,1bx/8bx,4/5,
{8}7,7,4>8[4:1],,5,,,6x,6xh[4:1],,
{4}5,3/4,1/2,7/8,5/6,3b/7b,
{8}1,1,,5,5,,
{4}3h[1:1],2,1,8,7h[4:3],8,1,2,3h[4:1],1h[4:1],8h[4:1],
{8}6,6,,1x/8x,1x/8x,,
{4}4/5,3/6,2h[4:1],4,
{8}7,7,5,,
{4}2/4,3/5,4/6,5/7,7h[4:1],8,
{8}2,2,1,,
{4}8-4[8:1],,1b,,7h[4:1],5,
{8}2,2,4,,
{4}5/7,4/6,3/5,2/4,2h[4:1],1,
{8}7,7,8,,
{4}1-4[4:1]/8-5[4:1],,,3b/6b,2/4,2/4,5/7,5/7,4/5,1/2,7/8,4/5,5/7,5/7,2/4,2/4,3-6[4:1]/7-2[4:1],,,4/5,5/6,5/7,3/4,2/4,1/8,6/7,4/5,2/3,1b/8b,,,,E7,E3,E5,Cf,1/8,
{8}3,3,,
{4}4/6,4/6,7/8,7/8,
{8}2,2,,1/8,,6,6,,
{4}3/5,3/5,1/2,1/2,
{8}7,7,,1/8,,3,3,,
{4}4/6,4/6,7/8,7/8,
{8}2,2,,1/8,,6,6,,3/5,,3b-8[4:1]/5b-8[4:1],,,,,,,
{4}4b-1[4:1]/6b-1[4:1],,,,4bqq1[1:1]/5bpp8[1:1],,,,,,,
{2}1/8,7b/2b<3[8:17],,,,,,
{4}1b/8b,
E

MASTER


Re:MASTER


名前:
コメント:

タグ:

+ タグ編集
  • タグ:
最終更新:2026年06月28日 19:16