BASIC
ADVANCED
EXPERT
MASTER
(185)
{1},,
{4}3h[4:1],4,4h[4:1],5,5h[4:1],6,47,56,
{4}6h[4:1],5,5h[4:1],4,{16}4x/5x,,,3x/6x,,,{8}2xbV48[4:1]b/7xbV51[4:1]b,,,,,
{8}2-5[8:1],1,2x,8,7-4[8:1],8,7x,1,2-5[8:1],1,2x,8,8^5[8:1],4,3x,2,
{8}1-5[8:1],6,1x,7,8-4[8:1],3,8x,3,35,35,26,26,1-4[8:1]/7-4[8:1],,,,
{8}6h[4:1],,5,,7,7,5,,3h[4:1],,4,,2,2,4,,
{8}7h[4:1],,5,,6,6,8,,2h[4:1],,4,,3,3,1,,
{8}7,7,78,,2,2,12,,{4}3>7[4:1],7>3[4:1],5h[4:1],,
{8}37,,26,2v4[4:1]/6<2[4:1],,,,,3xb/5xb,,,,2,1,8,7,
{8}6/3h[4:1],,4,,2,2,4,,6h[4:1],,5,,7,7,5,,
{8}2h[4:1],,4,,3,3,1,,7h[4:1],,5,,6,6,8,,
{8}3,3,24,,6,6,57,,{4}2h[4:1],4h[4:1],6h[4:1],8-4[8:1],
{4}1-5[8:1],7-4[8:1],2-5[8:1],7,24,57,{8}45,36,2b/7b,,
{8}7-4[8:1],8,7x,1,2-5[8:1],1,2x,8,7-4[8:1],8,7x,1,1>4[8:1],5,6x,7,
{8}8-4[8:1],3,8x,2,1-5[8:1],6,1x,6,46,46,37,37,2-5[8:1]/8-5[8:1],,,,
{8}4/6h[4:1],,5,,3/7h[4:1],4,5,,5/3h[4:1],,4,,6/2h[4:1],5,4,,
{8}5/7h[4:1],,8,,8/6h[4:1],1,2,,4/2h[4:1],,1,,1/3h[4:1],8,7,,
{8}6,5,47,,3,4,25,,{4}6<2[4:1],2<6[4:1],4h[4:1],,
{8}26,,37,3v5[4:1]/7>3[4:1],,,,,4xb/6xb,,,,2,1,8,7,
{8}6/3h[4:1],,4,,5/2h[4:1],4,3,,4/6h[4:1],,5,,4/7h[4:1],5,6,,
{8}4/2h[4:1],,1,,1/3h[4:1],8,7,,5/7h[4:1],,8,,8/6h[4:1],1,2,,
{8}45,3,34,6,57,3,24,5,46,,28,37,46,,35,,
{16}4,5,4,5,3,6,3,6,2,7,2,7,1h[4:1],,,,{4}8b,2b/4b,5b/7b,45,
{8}1b/8b,,3h[8:1],B4/E4,6h[8:1],B5/E6,2h[8:1],B1/E2,7h[8:1],B8/E8,4,4,46,,17,17,
{8}8/2^7[8:1],,6^3[8:1],6,2^7[8:1],2,6^3[8:1],6,2^7[8:1],2,6,6,46,,28,28,
{8}17,,3xb/5xb,3xb/5xb,1xb/7xb,1xb/7xb,4xb/6xb,4xb/6xb,2xb/8xb,2xb/8xb,3xb/6xb,3xb/6xb,1xb/8xb,,2xb/7xb,3xb/6xb,
{4}4xb/5xb-7[8:1],5-3[8:1],5-1[8:1],5<4[2:1],,,,45,
{8}2b/7b,,1q5[8:1],8,1,8,1v6[8:1],7,1,7,1>5[8:1]*q5[8:1],,1,,6,6,
{8}57,,8-4[8:1],8,1-5[8:1],1,7-3[8:1],7,2-6[8:1],2,7,7,78,,16,25,
{8}34,,56,7,18,2,34,5,6/5w1[8:1],,,,3/4w8[8:1],,,,
{4}7x/8x,34,12,56,38,{8}1-5[8:1],2-4[8:1],1-7[8:1],2-6[8:1],1,2,
{8}1b,,38,3-8[8:1]/8-4[8:1],,38,,15,15,,2,2,24,3,45,6,
{8}78,,16,1-5[8:1]/6h[4:1],2,1,,48,48,,57,7/5h[4:1],,4,4h[4:1],,
{8}2,,37,3qq8[8:3]/7qq4[8:3],,,,,,,1,1,26,26,7,7,
{4}48,1-6[8:1]/2-5[8:1],1b/2b,7-4[8:1]/8-3[8:1],{8}7b/8b,,,6,7,8,1,2,
{8}34,34,,2-5[8:1]/5-1[8:1],,25,,48,48,,7,7,57,6,45,3,
{8}12,12,,3-8[8:1]/8-4[8:1],,38,,15,15,,24,2/4h[4:1],,5,5h[4:1],,
{8}7,,26,2pp5[8:3]/6pp1[8:3],,,,,,,8,8,37,37,2,2,
{4}15,7-4[8:1]/8-3[8:1],7b/8b,1-6[8:1]/2-5[8:1],1b/2b,1-4[8:1]/8-5[8:1],1b/8b,36,
{1}B2/B3/B6/B7/Ch[4:10],,
{1},{16}12,,,78,,,{8}18,,4b/5b,4b/5b,,
{16}27,,3,4,3,,27,,6,5,6,,{8}7,8,12,47,,78,25,,45,,
{16}36,,7,8,7,,36,,2,1,2,,{8}3,4,5/6-8[8:1],,1^4[4:1],1,,5,5,,
{12}B4,B3,B2,B8,B7,B6,E4,E3,E2,E8,E7,E6,A3,A2,A1,A7,A6,A5,3x,2x,1x,8x,7x,6x,
{4}4xh[4:1]/5xh[4:1],,45,36,{16}1,7,1,7,2,6,2,6,3,5,3,5,4,,,,
{1}2xbh[4:3]/6xbh[4:3],3xbh[4:3]/7xbh[4:3],
{1}2xbh[4:3]/5xbh[4:3],4xbh[4:3]/7xbh[4:3],
{4}6/5>1[2:1],6,6,6,3/4<8[2:1],3,3,3,
{8}12,,,,45,45,36,36,2V48[4:1]/7V51[4:1],,,,,,18,,
{8}2b/7b,,6h[8:1],B6/E6,3h[8:1],B3/E4,7h[8:1],B7/E8,2h[8:1],B2/E2,5,5,35,,28,28,
{8}1/7^2[8:1],,3^6[8:1],3,7^2[8:1],7,3^6[8:1],3,7^2[8:1],7,3,3,35,,17,17,
{8}28,,1xb/2xb,1xb/2xb,5xb/6xb,5xb/6xb,7xb/8xb,7xb/8xb,3xb/4xb,3xb/4xb,1xb/8xb,1xb/8xb,4xb/5xb,,3xb/6xb,2xb/7xb,
{4}1xb/8xb,56,12,34,16,{8}8-4[8:1],7-5[8:1],8-2[8:1],7-3[8:1],8,7,
{8}8b,,16,1-5[8:1]/6-1[8:1],,16,,48,48,,24,3,57,6,45,3,
{8}12,,38,3h[4:1]/8-4[8:1],7,8,,15,15,,23,2/3h[4:1],,5,5h[4:1],,
{8}7,,26,2pp5[8:3]/6pp1[8:3],,,,,,,48,7,26,3,48,37,
{4}26,7-4[8:1]/8-3[8:1],7b/8b,1-6[8:1]/2-5[8:1],1b/2b,1^4[8:1]b/8^5[8:1]b,1-5[8:1]b/8-4[8:1]b,18,
{64}E1,B1/B8,B2/B3/B6/B7/Cf,B4/B5/E5,
E
Re:MASTER
最終更新:2026年10月09日 22:42