BASIC
ADVANCED
EXPERT
MASTER
(195)
{32},,,,,{4},{2},
{32}E6,B5,B4,E4,,,,,,,,
{8}2,,8,8,3,4/6h[8:5],,E6,C,E4,E3,,
{4}1/8,2-5[8:1],6,
{8}7,7,5,8h[4:1],,3,3,4,2^5[8:1],,
{4}6,8^5[8:1],4,2h[4:1],
{8}4,4,,6,6,5,8,3,6,5,7-4[8:1],,3,,2,2,4,1,,6,6,5,4^1[8:1],,
{4}7,5^8[8:1],2,1h[4:1],
{8}4,4,,6,6,5,8,,
{4}3/6,1-5[8:1],6,
{8}7,7,5^2[8:1],,6,,8,8,1/7,,
{4}4/6,3-6[8:1],6,7-2[8:1],2,3,3/5,6,5/7,8^5[8:1],2,3h[4:1],8z4[4:3],4,3,1,
{8}2,2,4,,6,6,5,8,1,1,4,,
{4}3/5,2b/6b,,7-3[8:1],3,2-6[8:1],
{8}6,7,8-5[8:1],,
{4}1-4[8:1],8,3-1[8:1]/7-5[8:1],,2-4[8:1]/6-8[8:1],,3-1[8:1]/7-5[8:1],,2/6h[4:1],8h[4:1],1h[4:1],3,7h[2:1],5,5qq1[4:3],6,6,7,8-4[8:1],3,1-5[8:1],6,8<1[2:1],,,,4/5,8<3[2:1],B5/B6,2,2,1>6[2:1],B3/B4,7,7,8<3[2:1],B5/B6,2,2,1>7[2:1],B3/E4,B6/E6,,1/7h[2:1],5,2h[2:1],4,8h[4:1],
{8}6,8,1h[4:1],,3,1,8,,3/7,3/7,3h[2:1]/7h[4:3],,,,,,2,2,4,4,5,,
{4}3/6h[1:2],,B5/E5,,E8,E7,E6,E5,3h[1:2],,B4/E5,,E2,E3,E4,E5,5,4/6,3,2/4,6,
{8}8,8,1,5,5<3[8:5],,
{1}Cf,
{16}1/8,,,2/4,,,
{8}5/7,1/8,,2x/7x,,1-5[8:1],8-6[8:1],1x,8x,,3,2/4,,8-4[8:1],1-3[8:1],8x,1x,5-1[8:1]*-2[8:1],,,,,,3/4,,5/6,,7/8,7/8,,3/5,2q7[8:1]/6^3[8:1],,,,,1x/8x,,3,3,4,1-4[8:1],,5,6,,8,8-4[8:1],3,2h[4:1],,,3,3-7[8:1],,1-5[8:1],,8<1[2:1],,1b,1b,,,,,
{16}1,8,1,8,1,,,,
{8}7-3[8:1],2-5[8:1],7x,2x,,6,4/8,,1-5[8:1],7-3[8:1],1x,7x,4-8[8:1]*-7[8:1],,,,,,5/6,,3/4,,1/2,1/2,,4/6,3p6[8:1]/7^2[8:1],,,,,4x/5x,,6,6,5,8-5[8:1],,4,3,,1-4[8:1],8-5[8:1],1x,8x,,,4,3/5,,8,1/8,,
{4}4-1[8:1]/5-8[8:1],4x/5x,2/7,
{8}1/8,1-5[8:1]/8-4[8:1],,
{4}1x/8x,2b/6b,,,
{8}5,4/6,,B1/E2,B7/E8,B3/E4,B5/E6,,
{4}2/4,3b/7b,,,
{8}4,3/5,,6,6,4,8b,,3x,,2/6,,
{16}3/7,,,6,5,,
{8}5,4/6,,3/7,,
{16}2/6,,,3,4,,
{8}4,3/5,,2/6,,
{16}3/7,,,4,5,,
{8}6/3>6[8:5],,Cf,{1},
{1}1-4[1:2],8-5[1:2],,,1-4[1:2],
{4}8-5[1:2],,,,,,,,,,,4^1[2:1],5,5,5,5/1-4[2:1],5,5,5,5/4V25[4:3],6,6,6,6,
{16}5/6,,,4/5,,,
{8}3/4,3/4,,2,2,4,,1/5,,7,7,5,,2,2,4,,8,8,1>5[4:1],,
{4}5<1[4:1],1>5[4:1],5,1,
{16}4,5,4,5,4,5,4,,
{8}3/6,,,,8-4[8:1],1-3[8:1],8x,1x,,6,7,2,1-5[8:1],8-6[8:1],1x,8x,4-7[8:1]*-8[8:1],,,,,,5/6,,3/4,,1/2,1/2,,4/6,3^6[8:1]/7p2[8:1],,,,,1x/8x,,6,6,5,8-5[8:1],,4,3,,1,1-5[8:1],6,7h[4:1],,,6,6-2[8:1],,8-4[8:1],,1>8[2:1],,8b,8b,,,,,
{16}8,1,8,1,8,,,,
{8}2-7[8:1],6-3[8:1],2x,6x,,2,1,7,6-3[8:1],2-7[8:1],6x,2x,5-1[8:1]*-2[8:1],,,,,,3/4,,5/6,,7/8,7/8,,3/5,2^7[8:1]/6q3[8:1],,,,,4x/5x,,3,3,4,1-4[8:1],,5,6,,8-5[8:1],1-4[8:1],8x,1x,,,5,4/6,,1,1/8,,
{4}4-1[8:1]/5-8[8:1],4x/5x,2/7,
{8}1/8,3/6,,,,2/7-4[8:1],,3,,2,2,4,1h[4:1],,6,6,5,7^4[8:1],,
{4}3,1^4[8:1],5,7h[4:1],
{8}5,5,,3,3,8,8,5,6,3,2-5[8:1],,6,,7,7,5,8,,3,3,4,5^8[8:1],,
{4}2,4^1[8:1],7,8h[4:1],
{8}5,5,,3,3,8,8,5,6,4,3-8[8:1],,6,,7,7,5,8h[4:1],,3,3,4,1v4[8:1],,
{4}5,8v5[8:1],4,2h[4:1],
{8}4,4,,6,6,1,1,4,3,5,6-1[8:1],,3,,2,2,4,1,,6,6,5,4,,6h[4:3],,2h[2:1],,,,,,,4/5,,B1/E1,B7/E7,B3/E3,B5/E5,
E
Re:MASTER
最終更新:2026年07月25日 09:15