アットウィキロゴ

ゼロトーキング

アーティスト はるまきごはん

BPM BASIC ADVANCED EXPERT MASTER Re:MASTER
133 2 6 9+ 13 -

EXPERT MASTER Re:MASTER
譜面制作者 はっぴー Jack -

BASIC


ADVANCED


EXPERT


MASTER

(133){4},,{24},,,,,5,4,5hx[24:101],,{8},{1},,,,{12}4h[12:1],,,{16}E6,,,E5,{2},{4}4h[12:1],5h[2:1],,,{12}5h[12:1],,,{16}E4,,,E5,{2},{4}5h[12:1],4h[2:1],{8}E7,E6,C,E4,E3,,1/8,,3/4,{24}6,,6,{8}5,,2/4,3,4/6,5,2/4,{24}3,,3,{8}4-6[8:1],,2-4[8:1],,8,,5/6,{24}3,,3,{8}4,,5/7,6,3/5,{24}4,,4,{8}5,6,7hx[8:1],3hx[8:1],5h[4:1],,4,{4}2-8[8:1],6-4[8:1],3,{8}4,5,6h[4:1],,3,4,5,2h[4:1],,4,3-5[8:1],,7-1[8:1],,2,,A3,E5,A6,,,7x/E4,2x/E6,1b-4[8:1]/8b-5[8:1],,,,2/7,{24}3/6,,1,{8}8,,3/5,4,5/7,{24}6,,6,{8}5-1[8:1],8,7<4[8:1],,3,,2/6,,3/5,4,5/7,{24}6,,6,5,,5,7,,7,1,,1,8,,8,2,,2,4,,4,{8}3,2/5,1/6h[2:1],2,3,4,5h[2:1],A8,B2,B6,A4,5,6,7,3,4,5/6,,8/3h[2:1],7,6,5,4h[2:1],A1,B7,B3,A5,4,3,2,1/7,1/7,2/6,,1/7-4[8:1],1,2,2,3/4,4/5,5/6,,8/2-5[8:1],8,7,7,6/4,5/3,4/2,,{12}5xp4[2:1]b/7x,5x/7hx[12:20],,{4},,,3bh[4:3],,,,

{8}2x/6bx,3/4,5/8,1/2,3<4v5[8:1]/7>8v1[8:1],{24},,3/7,{8},,2bx/6x,3/4,5/8<5[8:1],1/2,{24}3h[24:5],,,,,4,{8},2h[12:1]/6h[12:1],3/7,2/6,3-8[8:1]/7-4[8:1],2/6,3/7,{24},,2b/6b,,,7,8,,8,{8}6>4[8:1],4>2[8:1],2<8[8:1],8<6[8:1],6,,{24}4x,,4x,5x,,5x,{8}4xw8[8:1],,Cf,,2h[8:1]/6h[8:1],{24},,7/8,,,1,8,,,{8}2/6,4/8,1q5[8:1]/5q1[8:1],3/7,1/5,{24},,3x/7x,{8},2h[12:1]/6h[12:1],3/7,5/6,1/4,7/8,6>5v4[8:1]/2<1v8[8:1],{24},,6x/2x,{8},,3x/7x,4,2/6,7,{4}1-3[8:1]/8-4[8:1],8-6[8:1]/1-5[8:1],

{24}1b/8b,,,,,,3h[12:1],,4,3,,,5h[12:1],,4,5,,,3h[12:1],,4,3,,,2x/5,,,4/7x,,,3h[12:1],,4,3,,,5h[12:1],,4,5,,,3h[12:1],,4,3,,,1hx[8:1]/5hx[8:1],,,,,,
6h[12:1],,5,6,,,4h[12:1],,5,4,,,6h[12:1],,5,6,,,7x/4,,,5/2x,,,6h[12:1],,5,6,,,{8}4q5[4:1],4,,,6,6h[4:3],,5,,5,,5,5/6,4h[4:3],,5,,5,,5,4/5,3h[4:3],,4,,4,,4,3/4,5h[8:5],,4,E4,E3,C,E6,E7,,{8}1/8,,3/4,{24}6,,6,{8}5,,2/4,3,4/6,5,2/4,{24}3,,3,{4}4-8[8:1],2>5[8:1],6,{8}7,{24}4,,4,{8}5,,5/7,{24}6,,6,5,,,3,,3,{8}4,5,3hx[8:1],7hx[8:1],5h[4:1],,6,3-5[8:1],,7-3[8:1],,4,,5,4,3h[4:1],,6,5,4,7h[4:1],,5,6-4[8:1],,2-6[8:1],,7,,E8,E7,E6,E5,E4,E3,E2,,2h[8:1],3h[8:1],4h[8:1],5h[8:1],6h[8:1],7pp2[1:2],,{1},,{8}3,3h[4:1],,,4,4h[4:1],,,5,5h[4:1],,,4/6-4[8:1],,2/6,,3,3h[24:17],,A4,,A2,,4h[24:23],,D4,,A5,,A3,,5h[24:23],,D5,,A6,,A4,,6h[2:1],,D7,,5pp5[16:3]*qq5[16:3],{2},

{8}3x/7bx,5/6,1/4,7/8,6>5v4[8:1]/2<1v8[8:1],{24},,6/2,{8},,3bx/7x,1/2,5<8[8:1]/8,3/4,2h[24:5],{24},,1,,,,4,,4,{8}5,3/7,2-5[8:1]/6v1[8:1],4/8,2/6,{24},,3b/7b,{8},1/2,7/8,2/6,1-5[8:1]/7<5[8:1],8,1b>3[8:1]/7b-3[8:1],,1b/7b,,4x>6[16:3]b/6x,,Cf,,1hx[8:1]/5hx[8:1],{24},,3/7,,,1,{8}8,8<6[8:1],6-2[8:1],2>4[8:1],4,8-4[8:1],{24},,1/8,,,,3,,3,{8}4,2/4,6/7,1/2,4qq4[8:1]/8qq8[8:1],{24},,4/8,{8},,1-5[8:1],8-4[8:1],1>4[8:1],8<5[8:1],1,8,2b-6[4:7],,{1}B8f/A8/E8/E1,,{24}7,,7,8,,,{8}1/6>3[8:1],3,2,{24},,1h[8:1]/2h[8:1],,,,3/8,,,6,,6,5,,5,7,,7,1,,1,8,,8,2,,2,4,,4,{8}3,8-4-2[8:1]/7V51[8:1],,7b/8b,,8h[4:1],6,2h[4:1],4,{24}6,,,6,4,5,{8}3<6[8:1],2/7,8h[4:1],,1,{24}2,,2,{8}1,2/3,4/5,6/7,1pp4[4:1]/8qq5[4:1],{24},,1/8,{8},,,2/7,{24}4,,4,{8}5,3/6-3[8:1],2-7[8:1]/7,,,5h[12:1],,{16}E4,,,E5,{2},{12}5/6,5/6,,{4}4h[2:1],,,{8}4h[12:1],,{16}E6,,,E5,{2},{12}4/3,4/3,,{8}5h[2:1],,D3,E4,E6,D7,E

Re:MASTER


  • MASTER譜面を追加しました。修正等ありましたらよろしくお願いします。 -- Sugar (2026-06-28 22:58:36)
名前:
コメント:

タグ:

+ タグ編集
  • タグ:
最終更新:2026年06月28日 22:58