BASIC
ADVANCED
EXPERT
MASTER
(174){1},
8-4[4:3],1-5[4:3],
6-4>7[2:3],,
{4}4,4,4,4,6,6,6,6,
{8}1,1,8,8,2,2,7,7,{16}1,8,1,8,2,7,2,7,3,6,3,6,4q5<4[1:2],5,4,5,
{1}4b,,
,{4},,,3x/5x,
{8}4,4,4,4,4,4,4,4,35,35,35,35,26,26,26,26,
1x-4[8:1]b/7x-4[8:1]b,,1x/7x,,8x<4[8:1]b,,8x,,2x,3x/7x,{4}2x-6[8:1],2x,8bxh[2:3],
,,,,,,8-4[8:1],8,
{16}2h[16:3],,,3h[16:3],{8},4,,35,,46,,35,35,4-7[8:1],4-1[8:1],,,,
7h[16:3],{16},6h[16:3],{8},5,,47,,25,,36,36,2^5[8:1],5,6^1[8:1],,3,
2h[16:3],{16},3h[16:3],{8},4,,35,,18,,46,4/6h[4:1],,{16}A1,A8,A7,A6,A5,A4,A3,A2,
7h[16:3],,,6h[16:3],{8},5,,78,,12,,36,36,7^4[8:1],4,3^8[8:1],,6,
7h[16:3],{16},6h[16:3],{8},5,,34,,12,,46,46,5v2[8:1],5v8[8:1],,,,
2h[16:3],{16},3h[16:3],{8},4,,12,,78,,36,36,2^5[8:1],5,6^1[8:1],,3,
2h[16:3],{16},3h[16:3],,,4,,,,2-5[8:1]/5,,,,6-1[8:1],,,,3,,3h[16:3],,,,D8,D7,D6,D5,D4,D3,D2,D1,
3,,3,,24,,,,18,,,57,,,3,4,{8}2,1,3-5-8v2[8:3]/8h[2:1],,,,,,
6,6,57,,18,{16},24,,,6,5,{8}7,8,1,2^5v8[4:1]/6,2/6h[4:1],,,,
7,7,56,,18,{16},24,,,6,5,{8}7,8,1,2/6-8^1-5[4:1],2h[4:1]/6,,,,
3,3,24,{16},18,,7,5,,45,,3,4,,4,{8}3,35,2x^5v8[4:1]/6x,2x/6xh[4:1],,,,
7h[16:3],{16},6h[16:3],,,{4}5-2[8:1]*-8[8:1],,1-4[8:1]*-6[8:1],,3-8[8:1]/7,7-4[8:1],{16},,
2h[16:3],,,3h[16:3],{8},4v1[8:1]*v7[8:1],,,,8v3[8:1]*v5[8:1],,,,2/6-1[8:1],2-5[8:1]/6,,,,
7h[16:3],{16},6h[16:3],{8},5^2[8:1]*-8[8:1],,,,1-4[8:1]*^6[8:1],,,,37,3/7h[4:1],,{1}5<4[2:1],
2pp5[2:1]/6pp1[2:1],{4}E5,
3h[1:4],{2}E4,E3,E2,E1,
E8,E7,E6,{4}E5,
6h[1:4],{2}E6,E7,E8,E1,
E2,E3,E4,{4}E5,
4,4,4,4,5,5,5,5,
46,46,46,46,37,37,37,37,
{8}2,2,4,4,3,3,6,6,5,5,7,7,2,2,5,5,
{16}3,4,3,4,2,5,2,5,1,6,1,6,8,7,8,7,{8}8-4[8:1],,8,,2^5[8:1]/6^1[8:1],15,,,
8bxp4[8:1],,48,3,2-6[8:1],,24,5>1[4:1],,1<5[4:1],,5,,1,1-5[8:1],,
1-3[8:1]*-7[8:1],,1pp5[8:3],,1,,7,7h[4:1],,3,2-5-7[4:1],6,7-4-2[4:1],,8,,
8^5[8:1],,3^8[8:1],,6^3[8:1],,1,1h[4:1],,4-1[8:1]*-7[8:1],,4,,26,2-7[8:1]/6,,
2/5-8[8:1],,4-1[8:1]/5,,4/7pp2[8:3],,3,3,,5,,46,37,2b/8b,2b/8b,,
1q5[8:1],,15,6,7^4[8:1],,37,2-6[8:1],,2/8-4[8:1],,1h[4:1]/8,,4x,4x^1[8:1]*^7[8:1],,
,,5x^2[8:1]*^8[8:1],,,,4,4,,26,26,,17,,6-1[8:1],6h[8:3],
,,3-8[8:1],3h[8:3],,,6-2[8:1],6h[8:3],,,3-7[8:1],3h[8:3],{4},8>4[4:1],
4<8[4:1],8V24[4:1],4V68[4:1],8V24[4:1],4,8,1-5[8:1]/7-3[8:1],1b>8q2[2:3]/7b,
{1}8bh[4:7],,
{16}3,,3,,6,5,6,5,7,,8,,1,,2h[4:1],,,,5,,3,4,3,4,2,,1,,78,,,,
6,,6,,3,4,3,4,2,,1,,8,,7h[4:1],,,,4,,6,5,6,5,{8}7,8,12,,
2h[4:1],4,7h[4:1],5,3h[4:1],4,6h[8:1],4,3,{16}3,4,2,,6,5,7,,3,4,1,,{2}1h[2:3],
,,{8},,7x/8x,6x-3[8:1]b/7x-2[8:1]b,,
D7/A6/A7/E7f,,1x,8x,7-3[8:1],,57,4<8[4:1],,8>4[4:1],,4,,8,8-2[8:1]*-6[8:1],,
8-4[8:1],,8>4[8:1]*<4[8:1],,,,2x,2xh[4:1],,6,7-4-2[4:1],3,2-5-7[4:1],,1,,
1s5[4:1],,5s1[4:1],,7,,8x,8xh[4:1],,1w5[8:1]b,,,,37,3/7-2[8:1],,
4-1[8:1]/7,,4/5-8[8:1],,3pp6[8:3]/5,,7,7,,8,8z4[4:1]b,,5bx,3bx,1bx,,
8p4[8:1],,48,3,2^5[8:1],,25,6-2[8:1],,1-5[8:1]/6,,17,,8,8z4[4:1],,
4z8[4:1],,3,,2x^7[8:1],,5,5,,46,46,,28,,3^8[8:1],3h[8:3],
,,6^1[8:1],6h[8:3],,,3p7[8:1],3h[8:3],,,6p2[8:1],6h[8:3],{4},1<5[4:1],
5>1[4:1],1V75[4:1],5V31[4:1],1V75[4:1],5V31[4:1],1,5,7-3[8:1]b/8-4[8:1]b,
{1}7b/8b,,,,E
Re:MASTER
最終更新:2026年07月04日 21:55