アットウィキロゴ

好きな惣菜発表ドラゴン

アーティスト ンバヂ

BPM BASIC ADVANCED EXPERT MASTER Re:MASTER
160 3 6 9 12 -

EXPERT MASTER Re:MASTER
譜面制作者 はっぴー はっぴー -

BASIC


ADVANCED


EXPERT


MASTER

(160)
{4}E2,E3,E4,B2f,
{4}1>5[4:1],,1,1,
{4}1>5[4:1],,1,1pp4[4:3],
{1},
{4}1>5[4:1],,1,1,
{4}1>5[4:1],,1,1,
{4}1>5[4:1],,1,1pp5[4:3],
{1},
{8}8,,1,,1,8b,7b,6b,
{8}5bh[4:1],,8,8,1/7,,5/6,,
{8}7h[4:1],,6,6,5/7,,8<4[4:1]b,,
{4}4p8[4:1]b,,,4/6,
{8}7,7,5,,7/8,7/8,,5/6,
{4}6/5<1[4:1]b*p1[4:1]b,,,7/8,
{8}7,6,5,,5/6,7,8-6[8:1]b,,
{4}1-5[8:1]b,6<8[8:1]b,5p1[8:1]b,8qq5[2:1]b,
{4}1,1,1,3b-1[8:1]/4b-8[8:1],
{4},5-1[8:1]/6-8[8:1],,3-1[8:1]/4-8[8:1],
{4},5-1[8:1]/6-8[8:1],,7>3[4:1],
{4}3v5[4:1],5,4,4,
{4}3/5,3>8[8:1]/5<8[8:1],,,
{4}2/6,4qq4[8:3]*pp4[8:3],,,
{8},5/7,8,1,2/4,,4/5,,
{16}5,,5,4,3,,,,2h[8:1]/4h[8:1],,,,2h[8:1]/4h[8:1],,,,
{16}5,,5,4,3,,,,2h[8:1]/4h[8:1],,,,2h[8:1]/4h[8:1],,,,
{16}5,,5,4,3,,,,2h[8:1]/4h[8:1],,,,2h[8:1]/4h[8:1],,,,
{16}5,,5,4,3,,,,3h[8:1]/4h[8:1],,,,3h[8:1]/4h[8:1],,,,
{16}5,,5,4,3,,,,2h[8:1]/4h[8:1],,,,2h[8:1]/4h[8:1],,,,
{16}5,,5,4,3,,,,2h[8:1]/4h[8:1],,,,2h[8:1]/4h[8:1],,,,
{16}5,,5,4,3,,,,2h[8:1]/4h[8:1],,,,2h[8:1]/4h[8:1],,,,
{8}3<6[8:1],,,,,7,7-5[8:1],,
{8}8-4[8:1],,,,6,6,5,,
{4}4/7,4/7,6-4[4:1]b,4-1-6[8:3]b,
{4},,5,4/6,
{8}5,5,6/4pp4[8:3]b,,A7,,E8,,
{8}E1,,5,,6,6,4,4,
{8}8h[8:3],5,5,5,8h[8:3],6,6,6,
{1}8-4-1-5-7[4:3]b,
{4}8,8,7/8,6b<1[8:1],
{4}4,3>8[8:1],5,6<1[8:1],
{4}4,3>8[8:1],5,6,
{4}7>3[4:1],3v5[4:1],5,4,
{4}3/5,2<7[4:1]/6>3[4:1],,,
{4}2h[8:1]/5h[8:1],4h[8:1]/7h[8:1],3qq5[4:3]/6pp4[4:3],,
{4},,,3x/6x,
{8}2/5,,2/5,,4,2,3,5,
{8}4/6,3,2,1h[4:1],,{24}B3,B4,B5,E6,,,2,,,
{8}2,,7/8,,7,5,4,2,
{8},1,1,8h[8:3],2-4[8:1],,2x,,
{8},3,3,4,2h[4:1],,4,5,
{4}3h[8:1]/5h[8:1],2h[8:1]/4h[8:1],1h[8:1]/3h[8:1],{8}8>5[4:3],8h[8:9],
{1},
{4},,1/2,{8}2/4,2/4,
{8},3,3,4,2h[4:1],,4,5,
{4}3h[8:1]/5h[8:1],2h[8:1]/4h[8:1],1h[8:1]/3h[8:1],{8}8-5-1-4-2[1:1],8h[8:9],
{1},
{4},,6pp7[4:1]b,5qq4[4:1]b,
{8},,6,6,5/7,,5/6,,
{4}7h[4:1],5<6qq4[2:1]b,A7,E8,
{8}E1,,6,6,5/7,,4/8,,
{8}5,6,7,7,5>4v6[8:3]b,,7b,,
{4}8b,8-6[8:1],1-5[8:1],,
{8}6,7,8,8,5,5,8-4[8:1]b,,
{4},1V74[4:1]b/7V14[4:1]b,,,
{4}B8f/E1/E8,B5f/E5/E6,E7f,7bx-5[8:1]/8bx-4[8:1],
{4}7/8,1-5[8:1]/2-4[8:1],1/2,7-5[8:1]/8-4[8:1],
{4}7/8,1/2,1/8,1-5[8:1]b/2-4[8:1]b,
{4}1b/2b,7-5[8:1]b/8-4[8:1]b,7b/8b,1-5[8:1]b/2-4[8:1]b,
{4}1b/2b,1/7,2bh[4:1]/6bh[4:1],,
{4}1x-5[8:1]b,8x-6[8:1]b,2x-4[8:1]b,5pp5[2:1]*qq5[2:1],
{4},,,4/6<1[8:1],
{4}5,5/3>8[8:1],4,4/6<1[8:1],
{4}5,5/3>8[8:1],4,6h[4:7],
{4}E7f,A8f,A1f,E3f,
{4}E5f,E1f,Cf,,
{2}1h[4:1]/2h[4:1],7h[4:1]/8h[4:1],
{4}1/2,2-5[8:1]/3-8[8:1],2x/3x,1x/4x,
{2}7h[4:1]/8h[4:1],1h[4:1]/2h[4:1],
{4}1/2,2-5[8:1]/3-8[8:1],2/3,1b/4b,
E

Re:MASTER


名前:
コメント:

タグ:

+ タグ編集
  • タグ:
最終更新:2026年06月27日 16:42