BASIC
ADVANCED
EXPERT
MASTER
(118){1},
{4}E5,,A6,,A3,,B6,C,B3,,E5,,B3/B6/C,B4/B5,E5,45,{8}5>3[8:1],6,57,,35,35,26,,4<6[8:1],3,24,,46,46,37,,5>3[8:1],6,57,,35,35,2/6<1[8:1],,3<6[8:1],,8pp5[16:5],,5b,,,,
4,3,25,25,3,24,2h[1:1]/4<7[8:1],,4-1[8:1],,4-8[8:1],,4,,8,,47,3,2,1,1h[4:1],,4,4,35,7,35,1,35,17,26,,5,6,47,47,6,57,5qq3[8:1]/7h[1:1],,5v8[8:1],,5-1[8:1],,5,,1,,26,35,3h[8:1]/4h[8:1],,37,46,5h[8:1]/6h[8:1],,{12}7,5,8,2,4,1,7,3,5,{4}6-3-8-5[2:3]/4-7-2-5[2:3],{1}4b/6b,,{8}4-7[8:1],3,24,,28,28,3>8[8:1]/7,,6>3[8:1],,1qq4[16:5],,4b,,,,
8,7,16,16,7,68,6h[1:1]/8>3[8:1],,8-5[8:1],,8-4[8:1],,8,,4,,38,7,6,5,5h[4:1],,8,8,17,3,17,5,17,35,26,,1,2,38,38,2,13,1<6[8:1]/3h[1:1],,1-4[8:1],,1-5[8:1],,1,,5,,4/6<1[8:1],5,5,,7-2[8:1]/3-6[8:1],26,,,1>4[8:1]/5,,1<6[8:1],,1-5[8:1],,15,,
6qq5qq3[2:1],6,E2,,E8,,E1,,2qq1v7[2:1],2,E4,,E6,,E5,,6v4<5qq3[2:1],6,E2,,E8,,1>4[8:1],1,1<6[8:1]/5,,1>4[8:1]/5,,1/5-8[8:1]*-2[8:1],,5,,7V13>8[2:1],7,A4,,A6,,A5,,2V86<1[2:1],2,A5,,A3,,A4,,5,6,78,6,45,3,12,8,{16}7,5,,2,4,,7,8,,2,1,,8b/E5f/B4/B5,,,,
{8}2,38,4qq4[4:1]/6,7,4xpp4[4:1]/8,8,1,1,8,8,5/7>2[8:1],3<6[8:1],7,3,8,4,{16}3,3,4,4,2,2,7,7,5,5,6,6,1>4[8:1],1,{8}4,1,6,7p2q7[8:3]/6>3<6[8:3],67,,,,,8,1,3V15[4:1]/4,34,5,6,7,8,{24}7,,7,5,,5,4,,4,2,,2,4,,4,5,,5,{8}7<4[8:1]*-3[8:1],8,A7f,,2-5[8:1],1,2/7-4[8:1],8,2q6[8:1]/7,1,2/8p4[8:1],1,28,1,2b/6b,,,,
5,6,7<3[4:1],,,,,2,2h[4:3],,4-1[8:1],,,,8p4[8:1],,3,,2q6[8:1],,7,,8,,{12}7,8,5,2,1,4,7-3b[8:1],8,5,{8}1,,2h[16:7],,E4,{16},4,3,5,5h[8:3],,E5,,,,2h[16:7],,,,E4,,,4,3,5,5h[8:3],,E5,,,,3h[16:7],,,,E1,,,1,2,8,{8}8,17,1-5[8:1]/7,,1/6-1[8:1],,3-5-2-6[8:3]/6,,8,8,,7h[16:7],,E6,{16},5,6,4,4h[8:3],,E5,,,,7h[16:7],,,,E6,,,5,6,4,4h[8:3],,E5,,,,6h[16:7],,,,E1,,,8,7,1,{8}1,28,8-4[8:1]/2>4[8:1],,8<6[8:1]/2-6[8:1],,28,,3b/7b,3b/7b,,4,4,26,{16},7,57,,35,35,,2,{8}24,
1b/6b,8,4/6-8p3[8:3],46,3,2,1,1,2,2,3/4<8<4[8:3],34,E4f,,,2,{16}1,1,7,7,5,5,3,3,1,1,4,4,5,5,8,8,{8}2-8[8:1],6-4[8:1],2-5[8:1],6-1[8:1],2<7[8:1],6,2,4,1b/5b,2,3>1q5[16:5]/4,34,5,6,7,8,57,1,2/4-8[8:1],8-4[8:1],3,3,2-6[8:1]*>3-5[8:1],1,A2f,,7h[4:1],,4h[4:1],E5,6h[4:1],E6,3h[4:1],E4,5h[4:1],E5,2h[4:1],E3,4,25,
1b/6b,{24}7,,7,5,,,2>3-5-8[4:1],,2,4,,,6h[8:3],,,,,,,,,2,,2,4,,,7pp5[4:1],,7,{16}5,,4,,,,3,,3x/4x,,2,2,8,8,6,6,4,4,2,2,8,8,6,6,{8}4,5-7[8:1],5-3[8:1],5x-8[8:1],5x-2[8:1],5x-1[8:1],5x,5x,2x,{16}8,8,5,5,6,6,3,3pp4[8:1],4,4>7[32:5],,5,,,,,{24}6,,6,8,,,3,,3,1,,,4,,4,6,,6,{8}8q4[8:1]*>3[8:1],17,A8f,,4-7[8:1],,2-5[8:1]/4,1,2/8-3[8:1],7,6-1[8:1]/8,5,46,3,{1}2bh[4:1]/8bh[16:19],{16},,,3,4/7<1[4:1],56,,8,{4}8b,{1},,,,,
E
Re:MASTER
最終更新:2026年06月29日 21:33