| アーティスト |
柊マグネタイト feat.音楽的同位体 可不(KAFU) |
BASIC
ADVANCED
EXPERT
(190)
{4}4h[4:7]/5h[4:11],,,,,,,,,,,4x,3h[4:1],4,6h[4:1],5,3h[4:1],4,6,5/7,6h[4:1],5,3h[4:1],4,6h[4:1],5,3,3/5,2h[4:1],4,7h[4:1],5,2h[4:1],4,6,5/6,7h[4:1],5,2h[4:1],4,7h[4:1],5,4/6,,
{8}3h[4:1]/5h[4:1],,,2h[8:9]/6h[8:9],,,,,{1},{8}3h[4:1]/5h[4:1],,,
{4}6/2h[4:3],,4,
{8}5,5,,4/6,,4/6,,4h[4:1]/6h[4:1],,,3h[8:9]/7h[8:9],,,,,{1},{8}4h[4:1]/6h[4:1],,,
{4}3/7h[2:1],,5,
{8}4,4,,
{4}3/5,,2h[1:1],4,4,4,5,5,4,5,7h[1:1],5,5,5,4,4,3/6,,1/8,1bx/8bx,2,3/4,5,4/6,7h[4:1],5,5/7,8,6,5,4,3,2h[4:1],4,2/4,3,3h[4:1],1h[4:1],8h[4:1],6h[4:1],3,
{8}4-1[4:1]/5-8[4:1],{1},{8}1x/8x,,,,,
{4}3/6,4/5,4/5,E5,E6,E7,E8,E1,E2,E3,E4,E5,E6,E7,E8,E1,E2,B3/B6/C,1-4[4:1],,8-5[4:1],,4,4,4h[4:1]/5h[4:1],,5-8[4:1],,4-1[4:1],,8h[2:1],,,1b/8b,2/4,4/5,5/7,1/8,3/5,4/6,3bx/7bx,
{8}2,2,1,,7,7,8,,
{4}5/6,3/4,1/2,8,1b/7b,5/6,3/4,5/7,2/4,5/6,3/4q8[4:1],,
{8}1,1,8,,
{4}2h[4:1],4h[4:1],5h[4:1],7,2>5[4:1]b/6<1[4:1]b,,,5/7,4/5,2/4,1/8,4/6,3/5,2bx/6bx,
{8}7,7,8,,2,2,1,,
{4}3/4,5/6,7/8,1,2b/8b,7h[4:1],5h[4:1],4h[4:1],2,8-5[4:1],1-4[4:1],,8x,5/7,1/2,7/8,2/4q5[2:1],,,,,
{8}4h[4:1]/6h[4:1],,,3h[4:1]/7h[4:1],,,,3/7,,,
{4}6,5,4,
{8}3h[4:1]/5h[4:1],,,2h[4:1]/6h[4:1],,,,2/6,,,
{4}3,4,5,4/6,4/6,7,8,1/2,1/2,3,4,3/5,3/5,2,1p8[2:1],,,,,1h[4:1]/7h[4:1],,2h[4:1]/8h[4:1],,4/6,4/6,3/5,3/5,6,6,4/5,3,2,1-5[4:1]/8-4[4:1],,,3/6,4/5,6h[4:1],8h[4:1],1h[4:1],3h[4:1],6,7h[4:1],8,2h[4:1],1,
{8}8,8,1,,
{4}2/7,3/6,4/5,4/5,E5f,E4,E3,E2,E1,E8,E7,E6,E5,E4,E3,E2,E1,E8,B3/B6/C,8-5[4:1],,1-4[4:1],,5,5,4/5h[4:1],4,4-1[4:1],,
{2}5-8[4:1],1h[2:1],Cfh[2:1],A1/A8/E1,,,,7<4[8:3],,2>5[8:3],,
{4}6,6,6,6,1,1,1,1,1/8,1/8,1/8,1h[4:3]/8h[4:3],,,,1b/8b,5/7,4/5,2/4,1/8,4/6,3/5,2bx/6bx,
{8}7,7,8,,2,2,1,,
{4}3/4,5/6,7/8,1,2b/8b,3/4,5/6,2/4,5/7,3/4,6/5p1[4:1],,
{8}8,8,1,,
{4}7h[4:1],5h[4:1],4h[4:1],2,3>8[4:1]b/7<4[4:1]b,,,2/4,4/5,5/7,1/8,3/5,4/6,3bx/7bx,
{8}2,2,1,,7,7,8,,
{4}5/6,3/4,1/2,8,1b/7b,2h[4:1],4h[4:1],5h[4:1],7,1-4[4:1],8-5[4:1],,1x,2/4,7/8,1/2,5/7,3/4,5-2[4:1]/6-1[4:1],,,1,2/8,7,6/8,1,2/4,5/1h[1:2],,4,4,6,6,3,3,5,5,8,1/7,2,1/3,8,5/7,4/8h[1:2],,5,5,3,3,6,6,4,4,3,2/4,
{8}1,1,8,,
{4}7,7/8,6,4/5,6,5/7,
{8}8,8,1,,
{4}2,1/2,3,4/5,3,2/4,
{8}1,1,8,,
{4}7,7/8,6,4/5,3,1/2,1-5[4:1]b/2-6[4:1]b,,
E
MASTER
(190){16}6x,5x,4xw8[8:11],,,,,,{2},
,,Ch[4:3],,
{8}1x-5[8:1]/8x,,7,,6,6,,4/7-4[8:1],,3,3,,25,6,27,{16}1,8,
{8}1^4[8:1],,5,,6,6,,7v5[4:1]/8,,2,3,4h[4:1],,6,7,8,
1/8-4[8:1],,2,,3,3,,2-5[8:1]/5,,6,6,,47,3,27,{16}8,1,
{8}8^5[8:1],,4,,3,3,,1/2v4[4:1],,7,6,5,,3,2b/4b,,
4h[4:1]/6h[4:1],,,{1}5h[8:9]/7h[1:1],{8},6,4,46,,
3h[4:1]/5h[4:1],,,2h[8:1]/4h[4:1],,3,5,3h[4:1]/5h[4:1],,,4h[8:1]/6h[8:1],,46,,27,,
3h[4:1]/5h[4:1],,,{1}2h[1:1]/4h[8:9],{8},3,5,35,,
4h[4:1]/6h[4:1],,,5h[4:1]/7h[8:1],,6,4,4h[4:1]/6h[4:1],,,35,,2,2,12,,
1x/8xp4[8:1],,2,,3,3,,2v5[8:1]/4,,6,6,,47,3,27,{16}8,1,
{8}8^5[8:1],,4,,3,3,,1/2v4[4:1],,7,6,5,,12,1b/2b,,
3/4h[4:1],,3bx,5h[4:5],{4}3,3,2,2,2,26,
1/5h[4:1],{8}1,4h[8:1],1,5,16,7h[4:1]/8h[4:1],,,1h[8:1]/8h[8:1],,12,,34,,
5h[4:1]/6,,6,4h[4:5],6,,6,,7,,7,,7,,38,,
2h[4:1]/7h[4:1],,,1h[8:1]/6h[4:1],,2,3,4,5,6,57,,24,,1-4[8:1]/8-5[8:1],,
1bx/8bx,,5x/6x,{16}3,4,3,,B5,,B2,,E8,,,,4,5,4,,6,5,6,,B4,,B7,,E2,,
,,6,5,6,,3,4,3,,6,5,{8}6,47,B6,B4,B8,B2,D1,D2,3x/7x,,
4,5,{4}6,8-2-6-4[4:3],2,3h[2:1],,,12,
{8}8,7,{4}6,4-6-2-8[4:3],6,7q3[4:1],,,4b/5b,
1x/2x-5[8:1],{8}28,7-4[8:1],,78,,3x-8[8:1],,35,6-1[8:1],,56,,2,3,
4-8[8:1],,4/7h[8:3],,1,1-5[8:1],,8-6[8:1],,3,2,1,1-5[8:1]/8-6[8:1],,1b/8b,,
1x/8x,,12,1/2>7[4:1],,E5/B4/B5,,8x,,17,7<2[4:1]/8,,E5/B4/B5,,1x,1,
1>5[4:1],,5<1[4:1],,1>5[4:1],,5<1[4:1],,1V36-2[8:3],,5,6,7,8b,8b,,
7x-4[8:1]/8x,,17,2-5[8:1],,12,,6x-1[8:1],,46,3-8[8:1],,34,,7,6,
5-1[8:1],,2h[8:3]/5,,8,8-4[8:1],,1-3[8:1],,6,7,8,1-3[8:1]/8-4[8:1],,1b/8b,,
2x/7x,,56,5/6<3[4:1],,E1/B1/B8,,4x,,35,3>6[4:1]/4,,E1/B1/B8,,5x-8[8:1],5,
1-5[8:1],1,7-3[8:1],7,8>4[8:1],8,6p3[2:1],6,{4},,,2b,
3h[8:9]/5h[8:9],,,,,24,35,46,
5h[4:1]/7h[4:1],{8},4h[4:1]/6h[4:1],,,,35,,6,46,3,35,,27,,
7/8h[4:1],,7,1h[4:1],7,,78,1h[4:1],6,,6/8h[8:1],,16,2,36,,
78,,18,,12,1-5[8:1]/2,,3,,2,{4}2s6[4:1],7,,
5/6-1[8:1],2bx,3-8[8:1]/4,7,6-2[8:1],3-7[8:1],5^8[8:1],{8}2,2h[8:5],
,1,1-5[8:1],,,,6,7h[2:1],,8-4[8:1],,,,3,2h[4:1]/6-2[8:1],,
,,1,18,,78,6,5,45,3,2,12,,1,8,7,
7-3[8:1],,8,,2-6[8:1],,1,1<5[4:1],,4,4,3,2,,7-5[8:1]/8-2[8:1],,
,,3x/4x,{16}6,5,6,,B4,,B7,,E2/B2,,,,5,4,5,,3,4,3,,B5,,B2,,E8/B7,,
,,3,4,3,,6,5,6,,3,4,{8}3,25,B3,B5,B1,B7,D1/E1,D8/E8,2x/6x,,
3,4,{4}5,7-1-5-3[4:3],1,4h[2:1],,,56,
{8}7,8,{4}1,3-5-1-7[4:3],5,6q2[4:1],,,1w5[1:2],
{1}1b,,
,,
{4}5/6h[4:3],5,5,5,4/5h[4:3],4,4,4,
3/Ch[8:7],3,3,3,,,,{32}2bx,3x,4x,5x,6x,7x,8x,1x,
{8}2x-5[8:1],,28,7-4[8:1],,78,,3x-8[8:1],,35,6-1[8:1],,56,,2,3,
4-8[8:1],,4/7h[8:3],,1,1p5[8:1],,8^6[8:1],,3,2,1,1p5[8:1]/8^6[8:1],,1b/8b,,
1x/8x,,12,1/2>7[4:1],,E5/B4/B5,,8x,,17,7<2[4:1]/8,,E5/B4/B5,,1x,1,
1>5[4:1],,5<1[4:1],,1>5[4:1],,5<1[4:1],,1V36-2[8:3],,5,6,7,8b,8b,,
7x-4[8:1]/8x,,17,2-5[8:1],,12,,6x-1[8:1],,46,3-8[8:1],,34,,7,6,
5-1[8:1],,2h[8:3]/5,,8,8q4[8:1],,1^3[8:1],,6,7,8,1^3[8:1]/8q4[8:1],,1b/8b,,
2x/7x,,56,5/6<3[4:1],,E1/B1/B8,,4x,,35,3>6[4:1]/4,,E1/B1/B8,,5x-8[8:1],5,
1-5[8:1],1,7-3[8:1],7,8>4[8:1],8,6pp2[2:1],6,,4,4,4,4,,1b/8b,,
5x-1[8:1]/6x,,45,3-7[8:1],,34,,6x/8x-4[8:1],,18,{4}2<4[4:1],Cf,,
2h[4:7]/8q4[8:1],,5^8[8:1],,1-7[8:1],1-3[8:1],1-5[8:1],1,
4x-8[8:1],{8}47,6-2[8:1],,56,,1x-5[8:1]/3x,,18,{4}7>5[4:1],Cf,,
1p5[8:1]/7h[4:7],,4^1[8:1],,8-2[8:1],8-6[8:1],8-4[8:1]b,8bx,
3x-8[8:1],7-4[8:1],2-7[8:1],6-3[8:1],1-6[8:1],5-2[8:1],{8}8,1,2,3,
{4}4/6x-1[8:1],2-5[8:1],7-2[8:1],3-6[8:1],8-3[8:1],4-7[8:1],1^4[8:1]b,18,
{8}7x-4[8:1],7,8-3[8:1],8,6-1[8:1],6,5-2[8:1],5,7-2[8:1],7,3-6[8:1],3,8,,2b/7b,,
6-8[8:1],8v1[4:1],,1-3[8:1],,3,4,{1}45,E
Re:MASTER
最終更新:2026年07月16日 20:15