BASIC
(150)
{1},1,1,1,1,8,8,8,1x/8x,
{1}1h[1:1]/2h[1:1],,3h[1:1]/4h[1:1],,5h[1:1]/6h[1:1],,7h[1:1]/8h[1:1],,{2}8,8,7,,6,6,5/4,,4,4,3,,2,2,1/8,,{1}B1,B8,B2,B7,B3,B6,Ch[1:1],,
{4}1b,1,1,,2,,2,,3,3,3,,3/4,,,,5,5,5,,6,,6,,7,7,7,,7/8,,,,8,8,8,,7,,7,,6,6,6,,5/4,,,,4,4,4,,3,,3,,2,2,2,,1h[1:1]/8h[1:1],,,,,,,,
{1}1-5[4:3],,8-4[4:3],,2-6[4:3],,7-3[4:3],,{2}1,1,2,2,3,3,4/5,,5,5,6,6,7,7,8/1,,{1}B8,B1,B7,B2,B6,B3,Ch[1:1],,
{4}1h[1:1]/8h[1:1],,,,,,,,2bx,2,2,,3/4,3/4,3/4,,5,5,5,,6,6,6,,7,7,7,,7/8,7/8,7/8,,8,8,8,,7,7,7,,6,6,6,,5/4,5/4,5/4,,4,4,4,,3,3,3,,2,2,2,,1b/8b,,,,
{2}1,1,2h[2:1],,3,3,4h[2:1]/5h[2:1],,5,5,6h[2:1],,7,7,8h[4:3]/1h[4:3],,,,
E
ADVANCED
(150)
{4},,,,1,1,1,,2,2,2,,3,3,3,,4/5,,4/5,,5,5,5,,6,6,6,,7,7,7,,8/1,,,,
{2}7h[2:1],8,7/8,7/8,6h[2:1],5,5/6,5/6,
3h[2:1],4,3/4,3/4,2h[2:1],1,1/2,1/8,{4}2,2,2/1,,3,3,3/4,,6,6,6/5,,7/8,7/8,7/8,,7,7,7/8,,6,6,6/5,,3,3,3/4,,2/1,2/1,2/1,,B2,B3,B4,,B7,B6,B5,,B1,B2,B3,B4,B5,B6,B8/B7,,E2,B2,B3,,E8,B7,B6,,B3,B4,B5,B6,C,,,,
{4}7,7,8,8,1,1,1/2,,3,3,2,2,1,1,8/7,,7,7,6,6,5,5,4/3,,2,2,3,3,4,4,5/6,,6,6,7/8,7/8,1,1,1/2,,3,3,2/1,2/1,8,8,8/7,,7,7,6/5,6/5,4,4,4/3,,2,2,3/4,3/4,5,5,5/6,,4h[2:1]/5h[2:1],,,,
{1}6-3[2:1],2-5[2:1],7-3[2:1],2-6[2:1],7-4[2:1],3-8[2:1],7p4[8:10],,{4}3,3,3/4,,2,2,2/1,,7,7,7/8,,5/6,5/6,5/6,,6,6,6/5,,7,7,7/8,,2,2,2/1,,3/4,3/4,3/4,,3h[2:1],,4h[2:1],,5h[2:1],,6,,6h[2:1],,5h[2:1],,4h[2:1],,3,,2h[2:1],,1h[2:1],,8h[2:1],,7,,7h[2:1],,8h[2:1],,1h[2:1],,2,,
{4}8-5[4:3]/1-4[4:3],,,,,,,,3,3,2/1,2/1,8,8,8b/7b,,6,6,7/8,7/8,1,1,1/2,,2,2,3/4,3/4,5,5,5/6,,6,6,7/8,7/8,1,2,3/4,,3,3,2/1,2/1,8,7,6/5,,7,7,6/5,6/5,4,3,2/1,,2,2,3/4,3/4,5,6,7/8,,
{4}8,7,6,5,4,3,2/1,,1,2,3,4,5,6,7/8,,8,7,6,5,4,3,2,1,8,7,6,5,5h[4:3]/4h[4:3],,,,
E
EXPERT
MASTER
(150)
{1},
{16}1xb/6xb,,,,7,8,7,8,7qq5[16:3],,,5<2[16:5],,,{8}1,,4,4,4,2/4,4,1/4,4,
{16}3/8,,,,2,1,2,1,2pp4[16:3],,,4>8[16:3],,,8,,,,6h[16:3],,,5h[16:3],,,4-1[8:1]*-2[8:1],,,,4,,,,
{16}3xb/8xb,,,,2,1,2,1,2pp4[16:3],,,4>7[16:5],,,{8}8,,5,5,5,5/7,5,5/8,5,
{16}1/6,,,,7,8,7,8,7qq5[16:3],,,5<1[16:3],,,1,,,,3h[16:3],,,4h[16:3],,,5-3[8:1],,,,5/7,,,,
{8}6h[4:1],,5,4,3h[4:1],,4,5,6h[4:1],,5,4,3,,4/5,,
{8}3h[4:1],,4,5,6,,{4}3v2[4:1]/7v6[4:1],,,4/5,{8}4,3,
{16}2h[16:3],,,4h[16:3],,,{8}5^3[8:1],,6,6,,{16}7h[16:3],,,5h[16:3],,,{8}4^6[8:1],,3,3,4h[4:1]/8h[4:1],
{8},,5/7,4,{16}3h[16:3],,,2h[16:3],,,{8}1pp4[8:3],,8,7,6,5,,2/7,,
{8}1/6,2,3/4,5,5/6,7,5/6,4,3/4,2,1/5,8,6/7,8,1/5,2,
{8}3/4,5,5/6,4,3/4,2,3/4,5,5/6,7,8-3[8:1]*-6[8:1],,8,,5,4,
{16}3h[16:3],,,2,,,{8}1/4^1[8:1],,8,8,7,{16}6h[16:3],,,5,,,{8}4/7^4[8:1],,3,2,1h[4:1]/3h[4:1],
{8},,2,3,{16}4h[16:3],,,6h[16:3],,,{8}8qq5[8:3],,1,2,3,4,,2x/7x,,
{4}1/E8,1/E7,1/E6,1/E5,1/3,2/1-4[8:1],1x/8x-5[8:1],1x/8x,
{4}8/E2,8/E3,8/E4,8/E5,6/8,7p3[4:1]/8p3[4:1],7x/8x,,
{8}1/2,2,2/B6,2,1/3,3,3/B5,3,7/8,7,7/B3,7,6/8,6,6/B4,6,
{16}3,7,3,7,2,6,2,6,1,5,1,5,8>7V13[2:1]b,4,8,4,{2},{2}Cf,
{16}1b/7b,,2,4,,7,5,,{8}2,1/3^5[8:1],2,3/8,7,{16}7,6,,6,8<4[4:1],,{8}1,1,2,3,
{16}2/8,,7,5,,2,4,,{8}7,8/6^4[8:1],7,1/6,2,{16}2,4,,4,3>5[4:1]b,,{2}8xbh[2:1],
{8}2h[4:1],,3-8[8:1],5,7h[4:1],,6,4,{16}2h[16:3],,,8h[16:3],,,{8}6,5-3[8:1]/7-3[8:1],,5/7,,
{8}2h[4:1],,3<2[8:3]b,4,5xbh[2:1],,,,3xh[2:1],,2,1,8-4[8:1]*-5[8:1],,8b,,
{16}2/8,,7,5,,2,4,,{8}7,8/6^4[8:1],7,1/6,2,{16}2,3,,3,1>5[4:1],,{8}8,8,7,6,
{16}7/8,,1,6,,6,4,,{8}2/5,3/8,6/1<4[4:1],8/3h[8:3],,,,3/5,3/5,4/6,5/7,6/8,
{16}7/1<4[4:1],,,3,3,,2,,8>5[4:1],,,6,6,,{8}7,1h[8:1],5h[8:1],7h[8:1],3-7[8:1],,3<2[8:3],,3b,
{8},,4,4,5,5,3/6,{16}3,4,2,,6,5,7,,3,4,1w5[8:1],,,,1b,,,,
{2},,6h[1:2],B7/E8,
{2}B5/E5,B3/E3,3h[1:2],B2/E2,
{2}B4/E5,B6/E7,{16}8,,,8,,,{8}8/5-3^2[4:1],,,,,
{16}1,,,1,,,{8}1/4-6^7[4:1],,,,,{4}8h[2:1],7,6h[2:1],5,
{4}4h[4:1],3,1/2,1/2,{8}3/8,7,5/6,3,3/4,2/5,3/4,5,
{8}6/5-3[8:1],7,8,1,2/3-5[8:1],1,8,7,6/7^4[8:1],8,1,2,3/2^5[8:1],1,8,7,
{8}6/7,8,1-3[8:1]*-6[8:1],,1,,4,5,6,{16}6,8,,8,5,,{8}3^8[8:1],3h[4:1],,,
{16}2,,2,1,,1,4,,{8}8,7>4[8:3],6,5h[8:3],,,,6,5/6,{16}3,4,,4,1h[4:1],,
{8},8,2/7,3/6,4-1[8:1]/5-8[8:1],,{4}4x/5x,8/C,1/E7,8/E3,1/E5,
{4}8/E4,E6/1-4[8:1],1x/8x-5[8:1],1x/8x,1/C,8/E3,1/E7,8/E5,
{4}1/6,1q5[4:1]/8q5[4:1],1x/8x,,{8}8-4[8:1],8,2/8,2,2-6[8:1],2,1/2,8,
{8}7-3[8:1],7,5/7,5,5-1[8:1],5,5/8,7,{16}6,1,6,2,6,3,6,4,7,5,7,5,8<1V75[2:1]b,5,8,5,
{2},Cf,,,
{4},,2-5[8:1]/7-4[8:1],2x/7x,{16}1xb/7xb,,2,4,,7,5,,{8}3/8,6/1-5[8:1],3/8,1/6,
{16}7,,7,5,,5,6<4[4:1]b,,{4}1xbh[2:1],,7h[4:1],{8}6-1[8:1],4,2h[4:1],,3-8[8:1],5,
{16}7h[16:3],,,1h[16:3],,,{8}4,2-6[8:1]/4-6[8:1],,2/4,,7h[4:1],,6>7[8:3]b,5,4xbh[2:1],,,,
{8}6xh[2:1],,7,8,1-4[8:1]*-5[8:1],,1b,,2/8,{16}7,5,,2,4,,{8}1/6,3/8-4[8:1],1/6,3/8,
{16}2,,2,3,,3,1>5[4:1],,{8}8,8,7,6,1/2,{16}8,3,,3,5,,{8}4/7,1/6,3/8>5[4:1],1/6h[8:3],
{8},,,4/6,4/6,3/5,2/4,1/3,{16}2/8>5[4:1],,,6,6,,7,,1<4[4:1],,,3,3,,2,,
{8}8h[8:1],4h[8:1],2h[8:1],6-2[8:1],,6>7[8:3],,6b,,,5,5,4,4,3/6,{16}6,5,
{16}7,,3^6[8:1],4,2,,{8}3^8[8:1],,3<2q4[8:9]b,,3b/Cf,{1},
{8},,5/7,6,2/4,3,5/7,8,1/3,,{16}2,1,2,1,2pp4[16:3],,,4>8[16:3],,,8,,
{16},,6h[16:3],,,5h[16:3],,,{4}4-1[8:1]*-2[8:1],4,3xb/8xb,{16}2,1,2,1,2pp4[16:3],,,4>7[16:5],,,8,,
{8},5,5,5,5/7,5,5/8,5,{16}1,6,1,6,2,5,2,5,3,4,1,7,5,6,1h[4:1],,
{8},4,4/1-5[8:1],,6-2[8:1],7,8x,,
E
Re:MASTER
最終更新:2026年08月16日 00:19