アットウィキロゴ

テレキャスタービーボーイ

アーティスト すりぃ

BPM BASIC ADVANCED EXPERT MASTER Re:MASTER
182 2 7 9+ 11+ 12+

EXPERT MASTER Re:MASTER
譜面制作者 みそかつ侍 緑風 犬三郎 Jack

BASIC


ADVANCED


EXPERT


MASTER

(182)
{4},,,
{8}2b,,1xh[4:1],,4,4,2x,2,5,5,3xh[4:1],,6,6,4x,4,
{8}7,7,1xh[4:1],,4,4,2x,2,5,5,3xh[4:1],,6,6,4x,4,
{8}7,7,1xh[4:1],,4,4,2x,2,4,4,3xh[4:1],,1,1,4x,4,
{8}5,5,1xh[4:1],,4,4,2x,2,4,4,3xh[4:1],,1,1,4x,4,
{8}5,5,3h[4:1],,4,4-8[8:1],,1,1h[4:1],,8,8,,27,,4,
{8}5,6,6h[4:1],,5,5-1[8:1],,8,8h[4:1],,1,1-4[8:1]/8-5[8:1],,,,{16}4x,5x,
{8}4x,3,3h[4:1],,4,4-8[8:1],,2,2h[4:1],,6,3-8[8:1]/7-4[8:1],,,,4,
{8}5,3,3h[4:1],,{4}1h[4:1],8h[4:1],6h[4:1],{8}5,5^2[8:1]*^8[8:1],,,,8x,
{8}8x,2,2h[4:1],,4,4-8[8:1],,1,1h[4:1],,B6/E6/E7,B3/E3/E4,,B4/B5/C,,{16}8x,1x,
{8}8x,7,7h[4:1],,5,5-1[8:1],,8,8,,2x/7x,2x-5[8:1]/7x-4[8:1],,,,3x/6x,
{8}3x/6x,7,7V53[4:1],,2,2V46[4:1],,7,7h[4:1],,1,1,,26,,{16}4x,5x,
{8}4x,3,3^6[8:1],,{4}8,7^2[8:1],4,{8}3,3,,6h[4:1],,4x,
{4}37,2^4[8:1]/5^7[8:1],,4^2[8:1]/7^5[8:1],,2^4[8:1]/5^7[8:1],,7/4h[4:1],
{8}8,8h[4:1],,1,1-4[8:1],,8-5[8:1],,,,45,4^1[8:1]/5^8[8:1],,,,,
{8},27,1-4[8:1]/8-5[8:1],,1x/8x,,{16}3x/6x,,,2x/7x,,,{8}2x/7x,,3,3qq8[2:1],,5h[8:3],,
{8},,,1,1V35[8:1]*V75[8:1],,,,3x/7x,,{16}5,,,46,,,{8}7/3h[4:1],,6,
{8}6,27,1-4[8:1]/8-5[8:1],,1x/8x,,{16}3x/6x,,,2x/7x,,,{8}2x/7x,,6,6-1[8:1],,5V38[4:1],,
{8},,,6,6h[4:1],,4,3,5/2-5[8:1],6,7-3[8:1],,1,1,25,,
{4}8b-4[8:1],8x,1-5[8:1]/2-4[8:1],1x/2x,1V75[4:1]/8V24[4:1],,,{8}18,18,
{8},6/3h[4:1],,4,4<8[4:1],,{4}8>4[4:1],4<8[4:1],8,4,2b/6b,
{8}1,1,2-5[8:1]/8-5[8:1],,2x/8x,,{16}4x/6x,,,3x/7x,,,{8}3x/7x,,6,46,,{16}37,,,25,
{8},48,,3,3h[4:1],5,6h[4:1],4,3h[4:1],5,6,6,45,,B3/B6/Cf/E3/E7,,
{8},,1-5[8:1],1,8,8,{16}7h[16:3],,,6h[16:3],,,{8}5-1[8:1],,4,4-8[8:1],,7-3[8:1],,
{4}1,1/2^5[8:1],7,{8}8x,8x,4x/7x,4x/7x,6,5,4,3,{16}25,,,36,
{8},47,4/7-2[8:1],,1b,,{16}1h[16:3],,,3h[16:3],,,{8}4,,6,6-2[8:1],,3-7[8:1],,
{8}8,8h[4:1],,4,3,5,6,1,2,8,7h[4:1],,5,5,46,3,
{4}2-6[8:1]/4h[1:4],2x,,,,,,,
{1},,
{4}5,3/6h[4:11],5,5,{8}5,4,4,,5,,5,,
{8}5,4,4,,5,,5,,5,4,4,,27,,{16}1,8,1,8,
{4}1,3h[4:3]/6h[4:3],,,,B4/B5/Cf/E4/E6,,{16}1x/8x,,,2x/7x,
{8},4x/5x,,6,6pp1[2:1],,3h[8:3],,,,,8,8V24[8:1]*V64[8:1],,,,
{16}2x/6x,,,,5,,,7/4>6[16:5],,,{8}5h[8:3],,,,4x/5x,3-5[8:1]/7-1[8:1],,3x/7x,,{16}4x/8x,,,3x/7x,
{8},2x/6x,,4,4-8[8:1],,6V41[4:1],,,,,3,3h[4:1],,5,6,
{8}4/7^4[8:1],3,2q6[8:1],,8,8,47,,{4}1b-5[8:1],1x,7-5[8:1]/8-4[8:1],7x/8x,
{4}1xV74[4:1]/8xV25[4:1],,,{8}27,27,,3/6h[4:1],,5,5>1[4:1],,1<5[4:1],,
{4}5>1[4:1],1,5,3b/7b,{8}48,48,3-5[8:1]/7-1[8:1],,3x/7x,,{16}4x/8x,,,3x/7x,
{8},2x/6x,,3,35,,{16}26,,,47,,,{8}15,,7,7h[4:1],1,2h[4:1],8,
{8}7h[4:1],1,2,2,18,18,2b/7b,,45,,E7,E6,E1,E4,E3,
E


Re:MASTER

(182)
{4},,,
{8}2b-8[8:1]*v4[8:1],,,,7,7,2x/5,,4/6-4[8:1],,3x,,2,2,4x,,
{8}3/5-8[8:1],,1x,,7,7,2x/6,,1/7^4[8:1],,3x,,2,2,4x,,
{8}5/3-5[8:1],,1x,,7,7,2x/5,,4/6-1[8:1],,3x,,2,2,4x,,
{8}6/3^6[8:1],,1x,,7,7,2x/6,,4/7p5[8:3],,3x,,2,2,{16}4x,3,5,4,
{8}6b,,2h[4:1],,4,4h[4:1],,3,4,5,26,2-7[8:1]/6-3[8:1],,2x/6x,,,
{8}45,6,7h[4:1],,6,6h[4:1],,8,7,6,45,4/5-1[8:1],,2^4[8:1],,{16}8,7,
{8}6,,5/3h[4:1],,4,5/2h[4:1],,3,4,5,6,56,,4/7h[4:1],,6,
{8}5,4,3^6[8:1],,6^3[8:1],,3,,7,8,1,2-6[8:1],,8xh[4:1],,1x,
{8}2b/7b,,5/1h[4:1],,8,8h[4:1],,4,3,2,15,1-4[8:1]/5-8[8:1],,1x/5x,,,
{8}48,3,26,2,24,2h[4:1],,1,2,3,{16}4/5h[16:3],,,6h[16:3],,,7^5[8:1],,,,2,3,
{8}4,,4/6h[4:1],,5,4/7h[4:1],,6,5,4,3,34,,5/2h[4:1],,3,
{8}4,5,6^3[4:1],,3^8[4:1],,8^5[4:1],,5,4,3,2-6[8:1],,2x/7x,,{16}8,1,
{4}8b,2^4[8:1],,7^5[8:1],,E4,E6,E5,
{4},3h[4:1],4h[4:1],5h[4:1],6h[4:1],{8}3,45,,C,,,
{4},3b-8[8:1]/7b-4[8:1],3x/7x,{16}5/1h[16:3],,,2h[16:3],,,{8}3^6[8:1],,8,8,7,{16}56,,,23,
{8},8/7^4[8:1],,2,2h[8:1],{16}1,2,,,{8}47,8,1,{16}25,,,4/7<8[8:3],,,{8}2h[8:3],,,
{16},,2x/7x,3x/6x,4x-1[8:1]/5x-8[8:1],,,,4x/5x,,,,2/7h[16:3],,,5-1[8:1],,,{8}6,,7,8,1,{16}2h[16:3],,,4-8[8:1],
{8},3,,2,18,7,56,4,3/2pp6[8:3],1,8h[4:1],,,7,7-3[8:1],,
{8}Cf,,1x-5[8:1],1x,,,2x-4[8:1]/8-6[8:1],2x/8x,,,45,6,37,2,1x/8x,1x/8x,
{8},5/4h[4:1],,8,17,2,37,6,5/3>6[4:1],4,5h[8:3],,,4,2x/7x,,
{8},45,4/5-1[8:1],,2,,{16}3/8h[16:3],,,7h[16:3],,,{8}6,,45,3,2,{16}6/1h[16:3],,,2h[16:3],
{8},3,,45,6,7,18,2,34,5,2x/6x,3x/7x,2xqq2[8:3]/6xqq6[8:3],3x/7x,2x/6x,,
{8},,4,5,4,6,{16}4/7h[16:3],,,6h[16:3],,,{8}5,,3,4,3,25,3,
{16}6,6,5,,,,{8}7/2^7[8:1],27,,6,5,6,47,,3,4,3,{16}5/2h[16:3],,,3h[16:3],
{8},4-1[8:1],,8,8h[4:1],,{16}1,,,45,,,{8}27,,3,1,8,6h[4:1],,
{24}E8,E1,E2,E3,E4,E5,,,,{8}7,7,6,25,3,47,6,2/5-8[8:1],,1,1,8x/1h[8:3],8x,
{8}8x,8x,B2/B3/B6/B7/Cf,,,,{1},{32}B5,B4,,,,,,,
{4},E6,,B5,,B4,,E4,
{4},5h[4:3],7,,7,6,5,4,
{4}3,2h[2:1],,7h[2:1],,2,{16}1,8,1,8,1,8,1,8,
{16}1-5[16:1],8,1,{64}8,,,,,B1,C,B5,,,,,{4},{2},{24}1x/5x,2x/6x,3x/7x,{32}4xh[24:11]/8xh[24:11],,,,,,,{4},{64}B8,Cf,B4,,,,,,,,,,,,2b/6b,,,,
{8},3b/7b,,18,27,36,{16}45,,,78,,,{8}1/2^5[8:1],,7,7h[8:1],{16}8,7,,,25,,
{16}1,,8,,47,,,2/5<2[16:5],,,{2}4h[8:3],{16}4x/5x,3x/6x,2x-5[8:1]/7x-4[8:1],,,,2x/7x,,,,18,,,45,
{8},2b/7b,,{16}6,5,7x,,3,4,2x,,6,5,8x,,3,4,1xh[8:1],,{8}8,5/7x,6,2x/4,3,
{16}5/7x,,6,,4x,5x,3x,6x,4x,5x,2x,7x,4x,5x,1x,8x,B4/B5/C,,,,{8}8x-4[8:1],8x,,,1x^4[8:1]/5x^8[8:1],1x/5x,
{8},,15,8,37,2,1x/5x,5x/1-5[8:1],,8h[4:1],,1,28,7,26,3,
{8}4/6<3[4:1],5,4h[8:3],,,5,2x/7x,,,45,4-1[8:1]/5-8[8:1],,,,{16}7/2h[16:3],,,4<8[16:3],
{8},3x,,2,1,8,{16}2/7h[16:3],,,5>1[16:3],,,{8}6x,,7,8,1,25,3,
{8}47,6,15,48,1/5pp5[8:3]*qq5[8:3],48,,,,,3x/7x,2x/6x,3x-6[8:1]/7x-2[8:1],2x/6x,3x/7x,,
{4},
E

名前:
コメント:

タグ:

+ タグ編集
  • タグ:
最終更新:2026年09月02日 22:28