アットウィキロゴ

カーニバルハッピー

アーティスト かいりきベア

BPM BASIC ADVANCED EXPERT MASTER Re:MASTER
208 4 7+ 11 13 -

EXPERT MASTER Re:MASTER
譜面制作者 はっぴー Jack -

BASIC


ADVANCED


EXPERT


MASTER

(208)
{1},
{8}6h[4:1],,5h[4:1],,4,4,,34,,56,,78,7/8^3[8:1],,,5^8[8:1],
{4},2^5[8:1],8x,6x,5-1[8:1]b/7x-4[8:1]b,,2,34,
{8}5h[4:1],,4,4,,6,6-3[8:1],,{4}2-5[8:1],8,7,56,
{8}3h[4:1],,4,4,,35,4,,1,1,28,,7,,56,,
{8}4h[4:1],,5,5,,3,3-6[8:1],,{4}7-4[8:1],1,2,34,
{8}6h[4:1],,5,5,,46,5,,8,8,17,,6b/2b-5[8:1],,8-4[8:1],,
{8}1,,3,3^8[8:1],,7,,5,5,2,2,4,3h[4:1],,4,,
{8}25,25,,4/7^5[8:1],,2^4[8:1],,8,8h[4:1],,{4}1,3/7-4[8:1],1-5[8:1],
{8}8,,6,6^1[8:1],,2,,4,4,7,7,5,46,,23,,
{8}18,,67,,3/5x,3,3,4x/7,7,7,2b/8b,,4/1^4[8:1],,6-3[8:1],,
{8}2h[4:1],,4,4-8[8:1],,1,2,3,7,7,5,5,6h[4:1],,5,,
{8}47,47,,5/2^4[8:1],,7^5[8:1],,1,1h[4:1],,{4}8,1/7^4[8:1],3-6[8:1],
{8}8h[4:1],,5,5-1[8:1],,6,,7,1,1,8,8,2^5[4:1],,5^8[4:1],,
{4}8^3[4:1],3,6,{8}8,1-5[8:1]/7-4[8:1],,,,,{6}A2/B2,A1/B1,A8/B8,
{6}6h[3:1],,4,5h[3:1],,3pp4[3:1],4,,,A7/B7,A8/B8,A1/B1,
{6}3h[3:1],,5,4h[3:1],,6qq5[3:1],5,,,A2/B2,A1/B1,A8/B8,
{6}6h[3:1],,4,5h[3:1],,3pp4[3:1],4,,,{4}7-4[8:1],3-8[8:1],
{8}5x,5x,,17,,8-4[8:1],2-5[8:1],8,2,,,28,,1-5[8:1],7-4[8:1],1,
{4}7,2b/6b,1-5[8:1]/4-7[8:1],,{8}28,28,,5/6h[4:1],,8,6,4,
{8}12,3,45,6,7^4[8:1]/8^3[8:1],,{4}7x/8x,1^6[8:1]/2^5[8:1],1x/2x,7^4[8:1]/8^3[8:1],7x/8x,
{8}12,12,3x/8x,,5-1[8:1]/7-4[8:1],,,,8,8,,6/2h[4:1],,1,8,7,
{8}2-5[8:1]/6-1[8:1],,,,37,37,2x/6x,,37,37,2x/6x,1xh[4:1],,8,27,36,
{8}45,,B3/B7/Cf/E3/E7,,1x,1x,1x,28,1x,28,1x,2/8h[4:1],,3,3>7[4:1],,
{8}7<3[4:1],,3,,8,7,56,4,8,6,34,1h[4:1],,8,8-5[8:1],,
{8}1-4[8:1],,8,,56,47,,34,34,25,,18,18,27,,36,
{8}3v2[8:1]/6v7[8:1],,,,8^5[8:1],8,2x,,1^4[8:1],1,7x,8xh[4:1],,1,27,36,
{4}4-1[8:1]b/5-8[8:1]b,,2x^4[8:1]/7x^5[8:1],2xb/7xb,18,{8}78,16,,12,8/3^6[8:1],,
{8}7p3[8:1],,2,,1,2,34,5,1,3,56,8h[4:1],,1,2^5[8:1],,
{4}5p1[8:1],7,6h[8:1]/8h[8:1],3h[8:1]/4h[8:1],1h[8:1]/7h[8:1],4h[8:1]/5h[8:1],2h[8:1]/8h[8:1],5h[8:1]/6h[8:1],
{8}3h[8:1]/7h[8:1],,12,38,,7,7,5,5,4-8[8:1],4,2,,1,1,28,
{8}3-8[8:1]/7-4[8:1],,,,26,26,3x/7x,,26,26,3x/7x,8h[4:1],,1,27,36,
{4}1-5[8:1]/8-4[8:1],1b/8b,27,3,4h[4:1]/5h[4:1],,6,6,
{4}6,45,3b/7b^4[8:1],1-5[8:1],8,{8}6,6v1[8:1],,2,,4,
{8}4,7,7,5,6/4h[4:1],,5,,57,57,,4/2q6[8:1],,7p3[8:1],,1,
{4}1h[4:1],8,6/2^5[8:1],8-4[8:1],1,{8}3,3v8[8:1],,7,,5,
{8}5,2,2,4,35,,{4}6xh[16:1]/7xh[16:1],1xh[16:1]/8xh[16:1],2xh[16:1]/3xh[16:1],46,{8}1,2-5[8:1]/8-4[8:1],
{6},,,A7/B7,A8/B8,A1/B1,3h[3:1],,5,4h[3:1],,6<4[3:1],
{6}5,,,A2/B2,A1/B1,A8/B8,6h[3:1],,4,5h[3:1],,3>5[3:1],
{6}4,,,A7/B7,A8/B8,A1/B1,3h[3:1],,5,4h[3:1],,6<4[3:1],
{6}5,,,A2/B2,A1/B1,A8/B8,A4/B4,A3/B3,A2/B2,A6/B6,A5/B5,A4/B4,
{6}A8/B8f,,,A2/B2,A1/B1,A8/B8,5,5,5,3,3q5[2:1],3,
{6}5,,,A7/B7,A8/B8,A1/B1,4,4,4,6,6p4[2:1],6,
{6}4,,,A2/B2,A1/B1,A8/B8,5,5,5,3,3pp6[12:7],3,
{6}6,,,A7/B7,A8/B8,A1/B1,A5/B5,A6/B6,A7/B7,A3/B3,A4/B4,A5/B5,
{6}A1/B1,A2/B2,A3/B3,A7/B7,A8/B8,A1/B1,A2/A6/B2/B6,A3/A7/B3/B7,A4/A8/B4/B8,Cf,,,
{4},,2-5[8:1],6-1[8:1],{8}4x,4x,,28,,1-5[8:1],7-4[8:1],1,
{8}7,,,17,,8-4[8:1],2-5[8:1],8,2,,{4}3bqq4[8:5]/7bqq8[8:5],,,
{8},,1x/5x,3x/7x,,,,,{4}3h[8:1]/7h[8:1],2h[8:1]/6h[8:1],1-4[8:1]/5-8[8:1],,
{8}3-6[8:1]/7-2[8:1],,,,1x/8x,2,3/4x,5,4x/6x-8[8:1],,,,2-4[8:1],,5,,
{8}6,56,,45,,{16}3,4,2,,6,5,7-3[8:1],,,,{8}1,,2,2,35,,
{8}7,7,46,3h[4:1],,5,3,4,2-6[8:1],,2b,,8x,8x,8x,17,
{8}8x,17,8x,7/1h[4:1],,6,6<2[4:1],,2>6[4:1],,6,,1,2,34,5,
{8}1,3,56,8h[4:1],,1,2-6[8:1],,7-3[8:1],,1,,12,38,,78,
{8}78,16,,18,18,36,,27,2v3[8:1]/7v6[8:1],,,,1^4[8:1],1,7x,,
{8}8^5[8:1],8,2x,1xh[4:1],,8,27,36,4^1[8:1]b/5^8[8:1]b,,,,2x-5[8:1]/7x-4[8:1],,2xb/7xb,,
{8}18,,12,38,,78,1/6^3[8:1],,2q6[8:1],,7,,8,7,56,4,
{8}8,6,34,1h[4:1],,8,7^4[8:1],,4q8[8:1],,2,,13,2,3h[8:1]/4h[8:1],,
{8}68,7,5h[8:1]/6h[8:1],,12,3,4h[8:1]/5h[8:1],,78,6,45,3x/7x,,1,1,8,
{8}8,3,45,2x/6x,,8,8,1,2-5[8:1]/6-1[8:1],,,,37,37,2x/6x,,
{8}37,37,2x/6x,1xh[4:1],,8,27,36,1^6[8:1]/8^3[8:1],,{4}1x/8x,4h[4:3]/5h[4:3],,
{8},,,1b/8b,,{16}3,4,1,,6,5,8w4[8:1],,,,{4}8xb,6/2h[4:1],4,
{8}2/6h[4:1],,5,56,,8,1/7-4[8:1],,{4}3-6[8:1],8,3/7h[4:1],5,
{8}4/6h[4:1],,5,56,,3,4/2-6[8:1],,8,8,1x/7x,,26,5,4,3,
{8}2/5h[4:1],,4,5,6,7,8/2-5[8:1],,6-3[8:1],,1,,26,3,4,5,
{8}36,4,5,6,37,{16}1,8,1,,7,5,6,,2,4,3-6[8:1],,,,,,
E


Re:MASTER


名前:
コメント:

タグ:

+ タグ編集
  • タグ:
最終更新:2026年08月24日 23:52