BASIC
ADVANCED
EXPERT
MASTER
(203){4}1-4[8:1]/8-5[8:1],1/8,{8},3/6,2/7,2/7h[4:1],,{16}5x,4x,{4}3x-6[8:1],8v3[8:1]*v5[8:1],,{8}2-8[8:1],,6,,7,7h[4:1],,8,,5/6,,3/4,3/4-8[8:1],,2,,1-5[8:1],,6,,8,8h[4:1],,6h[4:1],,4,4,2,2-6[8:1],,6,,7-1[8:1],,3,,2,2h[4:1],,1,,4/3,,6/5,6/5-1[8:1],,7,,8-4[8:1],,3,,1,1h[4:1],,3h[4:1],,5,5,7,7-3[8:1],,2bh[1:1],,{1}4bh[4:3],{8}3/5,,4/6,,5/7,,8,8h[4:1],,2,2-4[8:1],,7-5[8:1],,2h[4:1],,4,,3/4,,3/4V68[4:1],,2,2h[4:1],,1,1-6[8:1],,2-5[8:1],,8h[4:1],,3,,2v4[4:1]b,,4b,,6,6h[4:1],,4,4>2[8:1],,5<7[8:1],,4h[4:1],,5,,1>4[8:1]/8-5[8:1],,1x/8x,,2x/7x,2x/7x,,3/5,3/5,,2-5[8:1]/6,,2b/8<4[4:1],,
{8}4>8[4:1],,8,,4,,2/6v4V28-5-7[4:3],2h[8:7]/6,{1},{8}2-4[8:1],,6-8[8:1],,1h[4:1],,5,5,,4/6,4-1<8-5[8:3]/6,,5,,,,E1,,B2/E3/B5/B6,,7s3[2:1],,4,4,,1x,1x-4[8:1],,8h[4:1],,5,,4b-1[8:1],,5b-8[8:1],,3b-1[8:1],,6b,6-8[8:1],,1,1,,2b<7[8:1],,5,,6>3[8:1],,1,,2V86v3[2:1],,4h[4:1],,,,,6,7>2[8:1],,4,,3<6[8:1],,8,,7-2[8:1]b,,5,5h[4:1],,8,8p4[8:1],,3-1-4[8:3],,,,7-5-8[8:3],,,,2,,3,3,,4/7,{16}6,5,6,,3,4,3,,{8}2-5[8:1],,6<1[8:1],,2h[4:1],,4,,3pp6[4:3],3h[8:7],{1},{2}4h[4:1]/7h[4:1],5h[4:1]/2h[4:1],{4}5h[8:1]/7h[8:1],4h[8:1]/2h[8:1],4qq4[4:1]/6,
{4}4pp4[4:1]/5b,8x,8x,8qq8[4:1],8pp8[4:1]/1,4x,4x,5,3-1[8:1]/7-5[8:1],3v4[8:1]/7v8[8:1],,1/5,3/7-3[8:1],1-5[8:1]/7,1/4,{8},2/6,2/6,,{4}1v4[8:1]/7v4[8:1],1b/7b,3/5,4/6,5v2[8:1]*-8[8:1],,1,8-5[8:1],2-4[8:1]/8,2/7-5[8:1],1-4[8:1]/7,1/8qq8[8:3],3,3,2,1-4[8:1]*-3[8:1],1-7[8:1]*-6[8:1],1-4[8:1]*-3[8:1],1-7[8:1]*-6[8:1],,{16}4x,3x,2x,1x,{4}8x,4h[8:1]/6h[8:1],4h[8:1]/2h[8:1],1pp3[8:1]*qq7[8:1],,5,{8}4/6,4/6,,2/8,2-6[8:1]/8,,1/2,,{4}8-5[8:1]*-6[8:1],8-2[8:1]*-3[8:1],8-5[8:1]*-6[8:1],8-2[8:1]*-3[8:1],,{16}5x,6x,7x,8x,{4}1x,5h[8:1]/3h[8:1],5h[8:1]/7h[8:1],8qq6[8:1]*pp2[8:1],,4,{8}5/3,5/3,,7/1,7v4[8:1]/1,,3-8[8:1]/7,,3/5,,2/6,2/6,2/6,2/6,1/5,1/5,1/5,1/5pp8[8:3],,{16}E2,E3,E4,,4x,,{4}4x,4b/6b,
{8}7-1[8:1],,3,,2,2h[4:1],,1,,2/4,,5/7,5p1[8:1]/7,,6,,8p4[8:1],,2,,1,1h[4:1],,4,,{16}E4,E5,E6,,7x,,{4}7xp3[8:1],3,{8}2-8[8:1],,6,,7,7h[4:1],,8,,5/7,,2/4,2/4-8[8:1],,3,,1-5[8:1],,7,,8,8h[4:1],,5,,{16}E6,E5,{8}E4,2,2,3/5,3/5,,
{4}E4/E7f,B5/E2,E4/B8,E6/B2,E8/B4f,E2/B6,B3/B7,E6/B2,E4/E7f,E2/B5,E4/B8,B2/E6,E8/B4f,E2/B6,B3/B7,B2/E6,
A4/E4/D4/A7f/D7/E7,D2/E2/A2/E6/D6/A5,A8/E8/B8/B3/E4f/B4,A1/D2/E2/A7/D7/E7,D3/E3/A2/B6/E6f/B5,E4/D4/A4/A8/E8/B8,
B1/E2f/B2/A5/D5/E5,B3/E3/A3/E7/B7/B6,E2/D2/A2/A6/D6f/E6,A8/E8/B8/B3/E4/B4,A1f/D2/E2/A7/E7/D7,A2/D3/E3/B6/E6/B5,
D8/A8/D1/E1/B8/E8f/D5/A4/D4/E5/B4/E4,A1/D2/A2/B1/E2/B2/A6/D6/A5/E6/B6/B5,D3/A3/D4/E4/B3f/E3/D8/A7/D7/E7/B7/E8,1x,
{4}2x/8x,1>4[8:1]*<6[8:1],1s5[8:3],,,{8},3/7,3/7,,8x-4[8:1],,8,,{4}8<5[8:1]*>3[8:1],8s4[8:3]b,,{8},1,1,,3/7,,8-3[8:1]*-4[8:1],,,,1-6[8:1]*-5[8:1],,,,4/7,4h[4:1]/7h[4:1],,,{16}6,5,6,,3,4,3,,{4}2-7[8:1]/5,2/6-3[8:1],1-5[8:1]/6,1/7,{8}8,8h[4:1],,6,6<7z3>2s6[8:11],,{1},{4},,1>4[8:1]/8<5[8:1],,2x/7x,3>1[8:1]/5,3/6<8[8:1],6/3-1[8:1],3/6-8[8:1],4w8[4:1]b/6,,,2x/6x,5x<8v5[8:5]*-3>2v5[8:5],,,,4x>3-1v4[8:5]*<7v4[8:5],,,,5x-2[8:1]/7x,8bx-3[8:1]/5bx,1bx-6[8:1]/8bx,1bx/4bx-7[8:1],4bx/5bxv4-2[2:1]*v6<8[2:1],{1},
{4}2v5[8:1]/8v5[8:1],2b/8b,1-7[8:1]/8-4[8:1],1/8,1h[4:1]/3q8[8:1],,2,3-6[8:1]/8,3/7-2[8:1],3-6[8:1]/7,3/8qq8[8:3],3,3,2,2/8,1-3[8:1]*-5[8:1],1-4[8:1]*-6[8:1],1-7[8:1]*-5[8:1],,{24}E2,B2,B3,{16}E4,,5x,6x,7x,8x,{4}1x/5x,4h[8:1]/6h[8:1],4h[8:1]/2h[8:1],1v4[8:1]*qq7[8:1],1-3[8:1],5,{8}4/6,4/6,,2/8,2-6[8:1]/8,,1/2,,{4}8-6[8:1]*-4[8:1],8-5[8:1]*-3[8:1],8-2[8:1]*-4[8:1],,{24}E8,B7,B6,{16}E6,,4x,3x,2x,1x,{4}8x/4x,5h[8:1]/3h[8:1],5h[8:1]/7h[8:1],8v5[8:1]*pp2[8:1],8-6[8:1],4,{8}5/3,5/3,,7/1,7/1,,2b/6,7b/3,2b/6,7b/3,{4}4-2[8:1]*pp6[8:1],4v1[8:1],8,{8}7,7,,2/8,2v5[8:1]/8,,2/6-1[8:1],,4/6,,3/7,3/7,3/7,3/7,4/8,4/8,4/8,4qq1[8:3]/8,,{16}E8,E7,{8}E6,6x,6x,,3b/7bp4V28-6[2:5],,{1}Cf,,Ch[4:5]/B3/B4,{4},8h[2:3],,,
(135)2h[2:1],,,1>5[4:3]/7,5h[8:1],6h[8:1],7h[8:1],8V64[4:3],4h[8:1],3h[8:1],2h[8:1],1-7v4[8:5],4h[8:1],5h[8:1],6h[8:1],8-2v5[8:5],5h[8:1],4h[8:1],3h[8:1],2v7<5-3[4:3],8h[8:1],1h[8:1],8h[8:1],7v2>4-6[4:3],1h[8:1],8h[8:1],1h[8:1],2-7-5>4v3[8:5],8h[8:1],1h[8:1],8h[8:1],7-2-4<5v6[8:5],1h[8:1],8h[8:1],1h[8:1],2b>3V57>8v5[1:1]*>3V57>8v2[1:1],E
Re:MASTER
- MASTER譜面を追加しました。修正等ありましたらよろしくお願いします。 -- Sugar (2026-07-02 23:25:19)
最終更新:2026年07月03日 06:30