アットウィキロゴ

ダーリンダンス

アーティスト かいりきベア

BPM BASIC ADVANCED EXPERT MASTER Re:MASTER
153 3 7 9+ 11+ 13

EXPERT MASTER Re:MASTER
譜面制作者 Jack 緑風 犬三郎 サファ太

BASIC

(153)
{1},,,1h[1:1],,1,1,8h[1:1],,8,1x/8x,

{2}1,1,2,,3,3,3/4,,5,5,6,,7,7,7/8,,7-3[4:3],,,,2-6[4:3],,,,8,8,7,,6,6,5/4,,4,4,3,,2,2,1/8,,{1}B1,B8,B2,B7,B3,B6,Cfh[1:1],,

{4}1b,1,1,,2,,2,,3,3,3,,3/4,,3/4,,5,5,5,,6,,6,,7,7,7,,7/8,,7b/8b,,

{1}7-3[4:3],,1-5[4:3],,8-4[4:3],,2-6[4:3],,8b,{2}1,1/2,8,8/7,{4}1,1,1,,1/8,,,,

{4}8,8,8,,7,7,7,,6bx,6,6,,5/4,5/4,5/4,,4,4,4,,3,3,3,,2,2,2,,1/8,1/8,1b/8b,,1,1,1,,1/2,1/2,1/2,,3,3,3,,3/4,3/4,3/4,,5,5,5,,5/6,5/6,5/6,,
7,7,7,,7/8,7/8,7/8,,1/2,1/2,1/2,,7/8,7/8,7/8,,1/8,1/8,1b/8b,,

{2}1h[2:1],,2,2,3h[2:1],,4,4,5h[2:1],,6,6,7h[2:1],,8,8,1/8,1/8,2h[8:3]/7h[8:3]
E

ADVANCED

(153)
{1},,,{4}2,2,2,,3,3,3,,4,4,4,,5/6,,5/6,,7,7,7,,6,6,6,,5,5,5,,5/4,,,,

{4}6,6,6/5,,7,7,7/8,,1,1,1/2,,3/4,3/4,3/4,,2,2,2/1,,8,8,8/7,,6,6,6/5,,5/4,,5/4,,B2,B3,B4,,B7,B6,B5,,B2,B3,B4,B5,B6,B7,C,,2,2,2,2,3,3,3,3,4,4,4,4,5/6,,,,7,7,7,7,6,6,6,6,5,5,5,5,4/3,,,,

{2}2-5[4:3],,,6,7-4[4:3],,,3,2-6[4:3],,,7,8-4[4:3],,,4/5,

{4}3b,3,2,2,1,1,8/7,,6,6,7,7,8,8,1/2,,2,2,3,3,4,4,5/6,,7,7,6,6,5,5,4/3,,

{2}3h[2:1],4h[2:1],5h[2:1],6,6h[2:1],5h[2:1],4h[2:1],3,2h[2:1],3h[2:1],4h[2:1],5,7h[2:1],6h[2:1],5h[2:1],4,4/5,,{1}3-6[2:1],7-4[2:1],2-5[2:1],{2}6,6/5,

{4}4,4,5,5,4h[2:1]/5h[2:1],,,,3,3,2/1,2/1,8,8,8/7,,6,6,7/8,7/8,1,1,1/2,,2,2,3/4,3/4,5,5,5b/6b,,6,6,6/5,6/5,7,7,7/8,7/8,1,1,1/2,1/2,3,3,3/4,,3,3,3/4,3/4,2,2,2/1,2/1,8,8,8/7,8/7,6,6,6/5,,7,7,7/8,,2,2,2/1,,1x/8x,1x/8x,1b/8b,,

{4}1,2,3,4,5,6,7/8,,8,7,6,5,4,3,2/1,,1,2,3,4,5,6,7,8,1,2,3,4,4/5,4/5,3/6,,3h[2:1],,4,,5h[2:1],,4x
E

EXPERT


MASTER

(153){4}1/8,1/8,{16}3/5,,,3/5,,,3/5,,6/4,,,6/4,,,6/4,,3/5,,1/7,,2x/6x,,,,{8}3x,3,4,2,{16}2h[16:3],,,3h[16:3],,,4,,7h[16:3],,,6h[16:3],,,5,,2h[16:3],,,3h[16:3],,,4,,{8}6x,6,5,7,{16}7h[16:3],,,6h[16:3],,,5,,3x,4,3,4,3,,,,6x,5,6,5,6,,,,{8}7x,7,5,6,{16}6h[16:3],,,7h[16:3],,,8,,3h[16:3],,,2h[16:3],,,1,,6h[16:3],,,7h[16:3],,,8,,{8}2x,2,4,3,{16}3h[16:3],,,2h[16:3],,,1,,{8}8-4[8:1],8,1-5[8:1],1,6,6,4/7,,

{4}3>8[8:1],5,6<1[8:1],4,3>8[8:1],5,6,{8}4/6,4/6,,2b/8b,3/7,,2h[4:1],,4,4,3,3,7<4[8:1],7,1h[4:1],,5,,4,4,3V15[4:1]/5,,8h[2:1],,,,5,5,6V84[4:1]/4,,1h[2:1],,,,4,4,2/5-8[8:1],,3-6[8:1],,7-2[8:1]b,,4-1[8:1]b,,6-3[8:1],,1-5[8:1],,8bx,,6x,6,5,7,{16}7h[16:3],,,6h[16:3],,,5,,4h[16:3],,,3h[16:3],,,2,,5h[16:3],,,6h[16:3],,,7,,{8}3x,3,4,2,{16}2h[16:3],,,3h[16:3],,,4,,6x,5,6,5,6,,,,3x,4,3,4,3,,,,{8}6<1[8:1],6,4,,3>8[8:1],3,5,,6<1[8:1],6,4,,3h[4:1],,5,3/5,,1b/7b,2/6,,7h[4:1],,5,5,6,6,3>8[8:1],3,5h[4:1],,1,,8,8,7V51[4:1]/1,,
3h[2:1],,,,1,1,2V48[4:1]/8,,5h[2:1],,,,8,8,7/1,,2/4,,2/4,,7h[8:1]/5h[8:1],,2h[8:1]/4h[8:1],,5/7,,4bx/6bx,,

{12}3,4,3,4,,,6,5,6,5,,,3,4,3,4,3,4,2h[4:1],,,1b,,,6,5,6,5,,,3,4,3,4,,,6,5,6,5,6,5,7h[4:1],,,8b,,,2,4,2,4,,,7,5,7,5,,,2,4,2,4,2,4,1h[4:1],,,8b,,,{8}4/7,3,2/6,7,{16}1/8,,,3/6,,,2/7,,2h[8:3]/7h[8:3],,,,,,,,,1bx/8bx,,,1bx/8bx,,,,

{8}7-4[8:1],7,3-8[8:1],3,7-4[8:1],7,1>4[8:1]b*-4[8:1]b,,,,1xp5[4:1]b/7x-2[4:1]b,,,,,,7<4[8:1]/8>3[8:1],7/8,,,2>5[8:1]/1<6[8:1],2/1,,,{16}7/8,,,1/6,,,2/5,,6,,4/7,,4/7,,,,{8}2-5[8:1],2,6-1[8:1],6,2,2,1>4[8:1]b*-4[8:1]b,,,,8q5[4:1]b*-5[4:1]b,,,,,,4,3/5,2<7[4:1]/6>3[4:1],,,,,,1/8,1/8,1>4[8:1]/8<5[8:1],,1x/8x,,,,

{4}4/7,5/6,{16}4/7,,,3/6,,,2/5,,{4}2/5,3/4,{16}5/2,,,6/3,,,7/4,,{4}7/4,6/5,{16}4/7,,,3/6,,,2/5,,{4}2-6[8:1]/5,7h[4:1],{8}8,8,1/6,,{4}3/8,5/6,{16}8/3,,,7/2,,,6/1,,{4}6/1,4/3,{16}1/6,,,2/7,,,3/8,,{4}3/8,5/6,{16}8/3,,,7/2,,,6/1,,{4}6-2[8:1]/1,3,{8}4,4,3/5<4[2:1],,{2}Cf,{8},,,3/4,{4}3/4,1-5[8:1]/2-4[8:1],1/2,{8},5/6,{4}5/6,8-4[8:1]/7-5[8:1],8/7,3h[4:1],4-8[8:1],,5-1[8:1]/6-2[8:1],,{16}3/8,,,4/7,,,5/6,,5/6,,,,3b/4b,,,,{2}1h[4:1]/2h[4:1],1h[4:1]/8h[4:1],7/8V26-4[2:1],,

{2}1q6[8:1]/2>5[8:1],8p3[8:1]/7<4[8:1],{16}1/2,,,3/8,,,4/7,,{8}3,2/5,2/5,,7-4[8:1],7,3-8[8:1],3,5,5,4>1[8:1]b*-1[8:1]b,,,,5p8[4:1]b*-8[4:1]b,,,,,,8,8,1/7,1/7,2/6,2/6,5,4,3qq5[2:1]/6pp4[2:1],3/6,{4},,,1>5[4:1],5<1[4:1],1>5[4:1],5<1[4:1],1>5[4:1],5<1[4:1],1,5,{8}6,5/7,5/7,,3,4/2,4/2-7[8:1],,5,,6-3[8:1],,1,,1bx,,{4}8<4[4:1],4>8[4:1],8<4[4:1],4>8[4:1],8<4[4:1],4>8[4:1],8,4,{8}3,2/4,2/4,,6,5/7,5/7,,3/5,3/5,2-6[8:1]/6,,2/7h[4:1],,8b,,7,5/6,5/6,,2,3/4,3/4,,4/6,4/6,3/7-3[8:1],,2h[4:1]/7,,1b-5[8:1],,3-6[8:1],,7-2[8:1],,3h[4:1],,B3/B4/E4,,

{8}6,6,5,8,{16}8h[16:3],,,6h[16:3],,,5,,1h[16:3],,,3h[16:3],,,4,,8h[16:3],,,6h[16:3],,,5,,{8}3,3,4,1,{16}1h[16:3],,,3h[16:3],,,4,,7,5,7,5,6,,,,2,4,2,4,3,,,,{8}2,2,4,3,{16}3h[16:3],,,1h[16:3],,,8,,6h[16:3],,,8h[16:3],,,1,,3h[16:3],,,1h[16:3],,,8,,{8}7,7,5,6,{16}6h[16:3],,,8h[16:3],,,1,,{8}2-6[8:1],2,7-3[8:1],7,1,1,2/5,,{16}4/7,,6,5,6,,,,2/5,,3,4,3,,,,A6/E7/B6,,,A3/E3/B3,,,B5/E5/B4,,,E2,,,{4}E8,E

Re:MASTER

(153)
{16}5bx/6bx,,,,3/4,,,,2h[16:3],,,4h[16:3],,,3,,
{16}7h[16:3],,,5h[16:3],,,6,,4,5,4,,3b/6b,,,,
{16}2,4,3,,{8}4/5,6-4[8:1],6h[16:3],,,2-4[8:1],
{8}2h[16:3],,,6-4[8:1],6h[16:3],,,3x,
{16}3,4,2,,1/8,,7,,5x/7x,,,4/5,,,2/4,,
{8}1h[16:1],1h[16:1],2h[16:1]/8h[16:1],2/8,{16}7,3,7,3,6,4,6,4,
{16}7,5,6,,{8}4/5,3>8[8:1],3h[16:3],,,6<1[8:1],
{8}6h[16:3],,,2>5[8:1],2h[16:3],,,6x,
{16}6,5,7,,1/8,,2,,2x/4x,,,4/5,,,5/7,,
{8}8h[16:1],8h[16:1],1h[16:1]/7h[16:1],1/7,{16}6,2,6,2,5,3,5,,
{8}2b/6b,3,4,5,{16}6h[16:3],,,5,6,,8,,
{16}3h[16:3],,,4,3,,1,,8h[16:3],,,1,7,,6/2-8[8:1],,
{8}5,2x,4,5,4h[8:1]/6h[8:1],,5h[8:1]/7h[8:1],,
{8}7,6,5qq5[16:5]*pp5[16:5],4,,,,,
{8}3bx/7bx,7,5pp4[8:3]/6h[4:1],,,,,,
{8}3x,3,3h[4:1]/4qq6[8:3],,,,,,
{8}4h[16:3]/7h[16:3],,4/7,3/6,2h[16:3]/5h[16:3],,2/5,3/4,
{16}6,6,5,,3,3,4,,{8}5,4/6,2b/8b,,
{16}2,1,2,,{8}3/8,7-4[8:1],7h[16:3],,,2-7[8:1],
{8}2h[16:3],,,5-2[8:1],5h[16:3],,,1x,
{16}2,4,3,,{8}4/5,6v1[8:1],6h[16:3],,,1x,
{8}8h[16:1],8h[16:1],1h[16:1]/7h[16:1],1/7,{16}2,6,2,6,3,5,3,,
{8}4/6-1[8:1],7,5,4,{16}3h[16:3],,,4,3,,2/5,,
{16}6h[16:3],,,5,6,,4/7,,2h[16:3],,,1,2,,3/8-4[8:1],,
{8}7,8x,3,2,6-1[8:1],6,4,,
{8}3/5,2,6/4V62-5[8:3],7,,,,,
{8}8b,7h[4:1],5,5,{16}6/4h[8:3],,,B5/E5,,,6,,
{8}3,2h[4:1],4,4,{16}3/5h[8:3],,,B4/B5/E5,,,3,,
{8}2>5[8:1],2,1,8,7<4[8:1],7,8,1,
{4}2h[8:1]/4xh[8:1],5xh[8:1]/6h[8:1],{6}4x/5x,1x/8x,2x/7x,
{12}3,3,3,4h[4:1],,,2,2,2,4h[4:1],,,
{12}1,1,3,2,2,4,3-1[8:1]*-5[8:1],,,,,,
{12}6,6,6,5h[4:1],,,7,7,7,5h[4:1],,,
{12}8,8,6,7,7,5,6-8[8:1]*-4[8:1],,,,,,
{12}3,3,4,2h[4:1],,,4,4,3,5h[4:1],,,
{12}4,4,6,5,5,7,6-2[8:1],,,,,,
{8}8b,8,1/7,2/6,3/5,{16}3,4,3,,4/6,,
{16}5/7h[16:3],,,1h[16:3],,,8,,7,1x,7,,2b/6b,,,,
{8}7/3-5[8:1],1/5,3/7,1,3/7-1[8:1],1/5,3/7,5,
{16}3b/7b,,6,5,,3,4,,1b/5b,,7,8,,2,1,,
{8}1/8-4[8:1],7-3[8:1],8,7,1b,2/4,8,5/7,
{16}4/5,,3,4,,7,8,,6,5,7b,,1b/5b,,,,
{8}3/7-1[8:1],1/5,3/7,5,7/3-5[8:1],1/5,3/7,1,
{16}2b/8b,,7,5,,3,4,,2b/8b,,7,5,,3,4,,
{8}1-4[8:1],1-6[8:1],1x,1x,5,4,3/5,2/4,
{8}1>4[8:1]/5-8[8:1],1/5,1/5,,2b/6b,,3/5,,
{16}4-8[8:1],,,,6,,,,7h[16:3],,,6h[16:3],,,5,,
{16}4>1[8:1],,,,7,,,,8h[16:3],,,7h[16:3],,,6,,
{16}6/5-3[8:1],,,,7-5[8:1],,,,1x,,,3x,,,5,,
{8}4/6,4/6,6/4z8[8:3],,7x,7x,7x,,
{16}6-3[8:1],,,,1,,,,2h[16:3],,,3h[16:3],,,4,,
{16}4/5<8[8:1],,,,2,,,,1h[16:3],,,2h[16:3],,,3,,
{16}3/4-6[8:1],,,,2-4[8:1],,,,8x,,,6x,,,4,,
{8}3/5,3/5,3/5pp4[8:3],,2bx,2bx,2bx,,
{8}3xh[2:1]/5xh[2:1],,,,,{16}4,4,5,,4/6,,
{8}3/5,4/6,3/5,4/6,3h[4:1]/5h[4:1],,,3/5,
{8}2/6,3/7,2-5[8:1]/6-1[8:1],3/7,2/6,,8b,,
{16}1/7,,2,4,3,,4/5,,5/6,,7,8,,8,6,,
{16}2b/4b,,,5/6,,,3/4-6[8:1],,,4x-2[8:1],,,4x,,,,
{2}8bxh[2:1],1bxh[2:1],
{16}7,,3,5,4w8[8:1],,{8}4,,,,,
{8}7/1-5[8:1],2/6-3[8:1],1,6,2,{16}2,1,3,,4/8,,
{16}5/7,,3,4,2,4,3,,8-4[8:1],1,7,,2/8b,,,,
{8}6/2<7[8:1],4/8,2/6,4,2/6>3[8:1],4/8,2/6,8,
{16}2b/6b,,3,4,2,,1b/8b,,3/7,,6,5,7,,1b/8b,,
{8}8-5[8:1],8-3[8:1],8x,8x,4,5,4/6,5/7,
{8}4>1[8:1]/8-5[8:1],1/5,4/8,,3b/7b,1x,1x,8,
{8}5/7,8,4/6,1,2/4,{16}6,5,,2,1,,
{8}3/8,2/7,1/6,2/5,3/4,{16}2,1,,6,5,,
{8}5/7,5/7,3/4,4/5,6-4[8:1],3,6-2-4[4:1],2,
{8}6bx,,1-5[8:1],5-2[8:1],1bx,,8x,7,
{8}4/6,2,3/5,1,4/6,{16}7,8,,3,4,,
{8}2/5,3/6,4/7,3/8,1/2,{16}3,4,,7,8,,
{8}4/6,3/5,2/4,1/5,6-1[8:1],2-6[8:1],6,2,
{8}8b,5/7,4/5,2/4,2>5[8:1]/4-8[8:1],,2b/4b,,
{8}1/7,1/7,2/8,1/7,3/8,1/6,4/7,2/5,
{8}4b>1[8:1]b/8b-5[8:1]b,1b/5b,4b/8b,,2x/6x,,5x/4x-8[8:1],,
{4}4b/7-3[8:1],7b/1<6[8:1],1b/5h[4:1],B4/B5/E5,
{16}2,1,2,,{8}3/8,7v4[8:1],7h[16:3],,,3v8[8:1],
{8}3h[16:3],,,6v1[8:1],6h[16:3],,,1x,
{16}2,4,3,,4/5,,5/6,,7h[16:3],,,5,,,4/5,,
{16}3,3,4,4,2,2,8h[8:1],,1,2,3,4,7,5,7,5,
{16}6,5,7,,{8}1/8,2v5[8:1],2h[16:3],,,6v1[8:1],
{8}6h[16:3],,,3v8[8:1],3h[16:3],,,8x,
{16}7,5,6,,4/5,,3/4,,2h[16:3],,,4,,,4/5,,
{16}6,6,5,5,7,7,1h[8:1],,8,7,6,5,2,4,2,4,
{16}3b,,2,2/4,,6,5/6,,1/8,,5/7,5/7,,3/4,3/4,,
{16}1bh[8:1]/2bh[8:1],,,4h[8:1]/8h[8:1],,,2h[16:3]/6h[8:3],,
E

  • 1 -- Voxi (2026-07-24 11:25:40)
  • MASTER譜面を追加しました。修正等ありましたらよろしくお願いします。 -- Sugar (2026-08-10 15:27:49)
名前:
コメント:

タグ:

+ タグ編集
  • タグ:
最終更新:2026年08月11日 15:30