BASIC
ADVANCED
EXPERT
MASTER
(155)
{4},,{8},E5,E4/E6f,,
{16}1,1,,28,,37,,6,4,,{8}35,26,17,{4}8w4[8:1],,2b/6b,,
{8}
3x/8x,1x/6x,3x/8x,1x/6x,3x/8x,1x/6x,3x/8x,1x/6x,
2x/8x,1x/7x,2x/8x,1x/7x,2x/8x,1x/7x,2x/8x,1x/7x,
3x/8x,1x/6x,3x/8x,1x/6x,3x/8x,1x/6x,3x/8x,1x/6x,
{4}
2-5[8:1],7^2[8:1],4-1[8:1],8b,
{8}
16,38,16,38,16,38,16,38,
17,28,17,28,17,28,17,28,
16,38,16,38,16,38,6/1-5[8:1],,
{4}1x,7b,{16}1,8,1,8,{4}1q5[8:1],15,
{16}6,,6,5,,3,,3,4,,{8}3h[4:1]/5h[4:1],,,
{16}2,,2,4,,4,5,,5,,{8}4h[4:1]/6h[4:1],,,
{16}3,,3,4,,2,1-5[8:1],,1,,
{4}1-4[8:1],1-6[8:1],1-5[8:1],1pp3[8:1]*qq7[8:1],{8},,,
{16}7,,7,5,,5,4,,4,,{8}5h[4:1]/3h[4:1],,,
{16}2,,2,4,,4,5,,5,,{8}4h[4:1]/6h[4:1],,,
{16}3,,3,4,,2,{8}1>5[8:1],38,E1f,,,
{24}A5,D5,A4,D4,A3,D3,{4}6x-3[8:1],6b,A5/D5/A4/E5f,E3f,
{8}4^3-1[8:1]/5^6-8[8:1],36,4x/5x,,
1^4[8:1]/8^5[8:1],,1x/8x,,2v7[8:1]/7,6,2x/E1,,5qq3[8:1]/8,,5x,,7V52[4:1],,2V47[4:1]/7x,,1x,,E2f,,
{16}8,,,17,,,26,,
{8}2h[4:1]/6h[4:1],,,3h[4:1]/7h[4:1],,,,46,,68,,18,,1-4[8:1]*-6[8:1]/3,,,,5-3[8:1]*-7[8:1],5,,,8^5[8:1]*^3[8:1],8,,,4qq8[4:2]*pp8[4:2],4,,
{4},,E3/B2/A2/A6/B6/E6f,,
{8}35,3>5[4:1]/5,,E5f,,,7-1[8:1],5,4,,3-8[8:1],4,5-8[8:1],,2,1-4[8:1],,6<4[4:1],,4,,,2-5[8:1],1,8,,7-4[8:1],4pp8[8:3],,,,,,,
{4}1x>5[4:1],5x<1[4:1],1x,5x,7V53[4:1],3V17[4:1],7,3,1^3-7[4:1],7^5-1[4:1],1,7,{8}58,{4}58,6-3[8:1]*-2[8:1],A6f,1x/7pp4[8:3],4,
{8},3,3,24,,57,{4}8>4[4:1],4<8[4:1],8,4,1V35[8:1],
{8}7,8,1V75[8:1],,3,2,1V35[8:1],,5,6,7-1[8:1],,3-5[8:1],,6,7-1[8:1],7,3-6[8:1],3,7-2[8:1],7,3^6[8:1],3,7^2[8:1],7,3^6[8:1],3,8xqq4[2:1],8x,3,3,3,3,2,2,
{16}1,5,1,5,1,5,{8}1-5[8:1],,1x/4,6,47,,1b/2b,3b/8b,,
{8}7,8,46,37,6,{16}35,26,,3,4,,4x,6x,8x,,
{8}46,5,46,8,{24}A6,D6,A5,D5,A4,D4,
{8}A3,1x/7x,{16}8x,7,6,5,14,,6,6,,28,28,,{4}6-3[8:1],6b,{32}5,6,7,8,1,2,3,4,{8}5bx-1[1:5],,
A1f,D2f,A2f,D3f,A3f,D4f,A4f,D5f,A5f,D6f,A6f,D7f,A7f,D8f,A8f,B8f,E8f,B7f,E7f,B6f,E6f,B5f,E5f,B4f,E4f,B3f,E3f,B2f,E2f,A2f,D3f,A3f,D4f,A4f,D5f,A5f,D6f,A6f,D7f,A7f,D8f,A8f,E8f,B7f,E7f,B6f,E6f,,
{12}1,1,1,28,28,28,{16}37,,,24,,,57,,
{4}8xv3[8:1]/7xp3[8:1],7b/8b,{16}2bxh[8:1]/4bxh[8:1],,,4bxh[8:1]/6bxh[8:1],,,3bx/7bx,,
{4}7bx^1[8:1]/3bx^5[8:1],37,{8}8-4-2[8:1]*-4-6[8:1],17,8,,
{4}4x-8[8:1],4b/E8,{8}1-5[8:1]/7-3[8:1],26,17,,
1v8-6[4:1]/2v3-5[4:1],,,,,4x/7x,4bx/7bx,,
{4}3-1b[8:1],A3f/D4/A4/D5/A5,
{16}47,,6x,5x,6x<3[2:1],,,,
{8}4b,,5,5,,6<3[2:1],,
{4}4b,5,6,
7^2[8:1]b,4b,
7^2[8:1]b,5b,
7^2[8:1]b,4b,
7^2[8:1]b,5h[8:19]/7<3p7p3>7[8:17],,,,,,,,,,{8},
(140.5){2},(155){8},,,
A6/E7/E3/A3/B7/B8/B1/B2/Cf/B6/B3/B5/B4/E6/D6/A5/D5/E5/A4/E4/D4,,{4},,
7-4[8:1]/8-3[8:1],7b/8b,1-6[8:1]/2-5[8:1],1b/2b,6x/5xqq1b[2:1],7,{8},8,8h[8:3],,,2,
{4}2-6[8:1],2b/6b,3/8,{8}4/7,5/6,
{4}5/6,6>3[4:1]/7p2[4:1],,,7/3-6[8:1],,8qq8[4:1],,1>8[4:1],,1,3-1[8:1]/7-5[8:1],3bv8[8:1]/7bv4[8:1],3b/7b,2b/6b,7<2[16:3]/8p1[16:3],7b/8b,{8},3x/8x,3x/8x,5x/6x,,3,2-6[8:1],,2/8-4[8:1],,8/5-1[8:1],,5/4x^1[8:1]*q8[8:1],,,,5x^8[8:1]*p1[8:1],5x,,,4x>5[2:1]*p5[2:1],4x,{4},,,8-4[8:1],{8}4,
3-6[8:1]b,3,7-2[8:1]b,7,3-6[8:1]b,3,7^2[8:1]b,7,3^6[8:1]b,3,7-2[8:1]b,7,3,3,8bx,8bx,4/7,4/7,4/7,4/7,{16}3,6,3,6,2,5,{8}1h[4:1],,4b,3b/6b,5b/8b-4[8:1],2-6[8:1],8,2,,
{8}2/4,1,5/7,8,3/4,{16}2,1,,7,8,,
{8}7/5,8,4/2,1,6/5,{16}7,8,,2,1,,
{8}4/2-6[8:1],6-2[8:1],7,8-4[8:1],{16}8,,,1,,,2/5,,
{8}2/5,,3/4-1[8:1],2/5-8[8:1],,,,1h[4:1],
,3,3v6[8:1],2^7[8:1],2,,
,6x-8-5-1-4[2:1],6x,4,4,3,{16}3,,,2x,,,6,,
{8}8p3[8:1],2,1,1,{16}2h[16:3],,,3h[16:3],,,4,,{8}2/5,{48}E3,E2,E1,E8,E7,E6,{4}E5f,
{16}2,4,3,5,4,6,5,,
{8}7/5,8,4/2,1,6/5,{16}7,8,,2,1,,
{8}2/4,1,5/7,8,3/4,{16}2,1,,7,8,,
{8}5/7-3[8:1],3-7[8:1],2,1-5[8:1],{16}1,,,8,,,7x/5x,,
{8}7x/5x-8[8:1],,5/4-1[8:1],,4/2^7[8:1],,6,6,
{8}7x/8x,6/1,5/2-6-3[4:1],4/3,{16}5,,,7,,,8,,
{8}8,4/6,6-4-1[4:1]b/4-6-1[4:1]b,3/7,,,,2x/8x,2x/8x,3/7,3/7,4/6,4/6,{16}7,5,,2,4,,{4}1-4[8:1]/5-8[8:1],1b/5b>6[4:1],,,
{16}
6-8[8:1],,,5,6,,3,,
7-1[8:1],,,2,7,,4,,
8-2[8:1],,,1,8,,5,,
1-3[8:1],,,4,1,,5,,
2-4[8:1],,,8,2,,6,,
3-5[8:1],,,5,3,,8,,
4-6[8:1],,,5,4,,7,,
5-7[8:1],,,3,5,,2,,
6b-8[8:1],,,5,6,,1,,
7b-1[8:1],,,4,7,,5,,
8b-2[8:1],,,1,8,,5,,
1b-3[8:1],,,4,1,,5,,
2b-6[8:1],,,1b/2b,,,7b-3[8:1],,,7b/8b,,,1b,,1b,,
1,8,1,8,{32}1,2,3,4,5,6,7,8,{16}1,5,1,5,2-7[8:1]b,6,3,7,{1}2b,,,,E
Re:MASTER
最終更新:2026年08月05日 11:44