アットウィキロゴ

エンヴィーベイビー

アーティスト Kanaria

BPM BASIC ADVANCED EXPERT MASTER Re:MASTER
171 3 7 9+ 13 -

EXPERT MASTER Re:MASTER
譜面制作者 隅田川星人 翠楼屋 -

BASIC


ADVANCED


EXPERT


MASTER

(171){1},
{4}5h[4:9],4,,
{2}4,4,4,4,
{8}4/5,5/4h[4:1],,5,3-5[8:1]/6-4[8:1],3/6,3/6,,
{4}2/7,3,4/5,
{8}6,6,,5/7,,4/8,,
{24}E4,B4,B6,E7,,,
{8}1,1,2/8,,3,3,4,2,2,5,4/6,,7,7,5,6,6,3,3,4,,2/5,,1,1,,2/4,,3/5,,
{24}E6,B5,B3,E3,,,
{8}8,8,1/7,,6,6,4,5,3,2,5/1h[4:1],,4,4,3,5,6,3/7,,4h[4:1]/6h[8:3],,,4,3h[8:3]/5h[4:1],,,5,2h[4:1]/6h[8:3],,,2,3h[8:3]/7h[4:1],,,7,4/6,4/6,,
{4}E4/E7,E3/E6,E4/E7,5/6,
{8}5/6,4/7-4[8:1],,3,,2x,4h[8:1],3h[8:1],5x,4xh[8:1],5h[8:1],4h[8:1],6x,5xh[8:1],6h[8:1],5h[8:1],7x,4xh[8:1],8h[8:1],4h[8:1],8x,5x/7x,5/7,,
{4}E4/E7,E3/E6,E4/E7,6/5h[4:1],
{8}6,4/7,,2/5,,4/3p5[2:1],,,6,6,,
{4}7,8<5[4:1],5,1>4[4:1],4,
{8}6-8-4[2:1],,,3,3,,
{4}2-6[8:1],2x/6-4[8:1],6x/4-8[8:1],3/4x,1/7x,
{16}2h[16:3],,,1,2,,
{8}8,4/7,6,3/5,2,
{16}1h[16:3],,,8,1,,
{8}2,3/5,6,5/7-3[8:1],,
{128}1b,C,,,,,,,,,,,,,,,{1},
{8}3/6,4/5,2/7,,6,6-4[8:1],4,6/3x>1[8:1],,3/4x-8[8:1],,1x/4,1pp1[8:3],,
{4}7h[4:1],,B2/B3/B5/B6/E3/E6,
{8}8,7,1/6,,2-4[8:1],4,2,5,6<1[8:1],,5x,,2,3,4/6,,3,3-5[8:1],5,3/6x<8[8:1],,6/5x-1[8:1],,5/8x,8qq8[8:3],,
{4}2h[4:1],,B3/B4/B6/B7/E4/E7,
{8}1,2,3/8h[4:1],,6,5-1[8:1],4-8[8:1],,,,1b/7b,,2/6,3/5,2/6,5/3>8[8:1],,
{4}4qq4[4:1],B5/B6/4pp4[4:1],B3/E3,
{8}8,8w4[8:1],,8b,,2,1,8,5x/7x,4,3qq5[8:3]/6pp5[8:3],,3/6,,,,4/6,4-8[8:1]/6-3[8:1],,,,1x,2,5,2x,3,4-8[8:1],5,4/6>3[8:1],,6/1h[4:1],,8,2p6[8:1]/7q3[8:1],,2b/7b,,5x,4,3/5,2,1,2/8,7/3>8[4:1],,7,6,5,4,3,2,8/1h[4:1],,8,2-5[8:1]/7-4[8:1],2/7,2/7,,
{4}2b/7b,3/6,4/5,
{8}6,7/5h[4:1],,8,,4/7,,
{24}E4,B4,B6,E7,,,
{8}1,1,2/8,,3,3,4,2h[4:1],3,4,3/5,,7,5,6h[4:1],5,4,3,3,2/4,,3/5,,6,5/7h[4:1],,6,,4/8,,
{24}E4,B4,B6,E7,,,
{8}1,1,2/8,,6,5,7,2,4,3,5h[4:1],,E1,Ch[4:1],,8-5[8:1],,1,,2h[4:1],,,3h[4:1]/4h[4:1],,,3/B4,,6h[4:1],,,5h[4:1]/7h[4:1],,,
{4}7/B5,4/8,5/7,
{16}3h[16:3],,,4,3,,2,,1/6h[16:3],,,5,6,,
{8}7,2/8,1x,1x-3[8:1],,4-8[8:1]*-6[8:1],,,,1,1,7,7,6h[8:1],5h[8:1],4h[8:1],3h[8:1],4-6[8:1],,
{4}C,1-3[8:1],E5,5-8[8:1],
{8}1h[8:3],,,8,7,6,1b/5b,2b/4b,3b/5b,4b/6b,7/3p5[8:3],,,8,8,,
{4}4/7,6>3[4:1],3,2<7[4:1],7,
{8}6q4[8:3],,,1,1,,
{4}5/2-6[8:1],2x/6-4[8:1],6x/4-8[8:1],3/4x,1/7x,
{16}2h[16:3],,,1,3,,
{8}8,4/7,6,2/5,1,
{16}7h[16:3],,,8,6,,
{8}1,2/4,3,5/4-8[8:1],,{128}7b,C,,,,,,,,,,,,,,,{1},{8}3/6,4/5,2/7,,6,6-4[8:1],4,6/3x>1[8:1],,3/4x<7[8:1],,1x/4,1qq1[8:3],,
{4}5h[4:1],,B3/B4/B7/B8/E4/E8,
{8}1,2,3/8,,7-1[8:1],5,7,2,3<6[8:1],,7h[4:1],,8,1,2/5,,3,3-5[8:1],5,3/6x<8[8:1],,6/5x>2[8:1],,5/8x,8pp8[4:1],,
{4}4h[4:1],,B1/B2/B5/B6/E2/E6,
{8}8,7,6/1h[4:1],,3,4-8[8:1],5-1[8:1],4,5,,2b/8b,,3/7,4/6,3/7,4/6<1[8:1],,
{4}5qq5[4:1],B6/E7/5pp5[4:1],B3/B4,
{8}8,8w4[8:1],,8b,,2,1,8,5x/7x,4,3qq5[8:3]/6pp5[8:3],,3/6,,,,4/6,4-8[8:1]/6>3[8:1],,,,1x,2,5,2x,3,4-8[8:1],5,4/6v3[8:1],,6/1h[4:1],,8,2p6[8:1]/7q3[8:1],,2b/7b,,5x,4,3/5,2,1,2/8,7/3q8[4:1],,6,5,4,1/5,2,3/7,8h[4:1],,1,2-5[8:1]/7-4[8:1],2/7,2/7,,
{4}2b/7b,3h[4:1]/6-4[8:1],6,
{8}1,8/2pp8[2:1],,
{4}B3/B4/E4,8,7xh[4:1],
{8}5,4,5/3h[4:1],,4,1-3-8[4:1],4,5,6-3[8:1],,
{4}1-6[8:1],5-1[8:1],4,
{8}2/8,2/8,,4h[4:1]/7-1[8:1],,7,,4,5/3qq5[2:1],,
{4}B1/B2/E2,5,6xh[4:1],
{8}8,1,8/2h[4:1],,4,3q5[8:3]/5h[4:1],,3x,,7,8b<5[8:1],,8x/3b>8[8:1],,3x/8b,,5/7,4/5,2/4,1b-4[8:15]/8b-5[8:15],,,,,,,,
E

Re:MASTER


名前:
コメント:

タグ:

+ タグ編集
  • タグ:
最終更新:2026年08月11日 17:52