アットウィキロゴ

酔いどれ知らず

アーティスト Kanaria

BPM BASIC ADVANCED EXPERT MASTER Re:MASTER
115 2 6 8 11+ 13

EXPERT MASTER Re:MASTER
譜面制作者 Luxizhel 緑風 犬三郎 サファ太

BASIC


ADVANCED


EXPERT


MASTER

(115)
{8}6h[2:1],,5,4,3h[2:1],,4,5,6h[2:1],,5,4,3h[4:1],,4,,
{8}5x/2xh[2:1],,1,8,7h[2:1],,8,1,1x>5[4:1],,,,,,,,
{8}7,6,5,4,3,{24}5,,5,4,,,,,,{8}2,3,4,5,6,{24}4,,4,5,,,,,,
{8}7,6,5,4,3,{24}5,,5,4,,,,,,{8}2,2h[8:1],4,4h[8:1],5,5h[8:1],7,,
{8}6,7,8,1,2,{24}8,,8,1,,,,,,{8}3,2,1,8,7,{24}1,,1,8,,,,,,
{8}6,7,8,1,2,{24}8,,8,1,,,,,,{8}3,3h[8:1],1,1h[8:1],8,8h[8:1],6,,
{8}2^7[8:1],,5,5,6^3[8:1],,1,1,2^7[8:1],,5,5,6^3[8:1],,2,2,
{8}1-5[8:1],,7,7,36,36,45,,{12}6,5,4,3qq4[8:3],,,{2},
{8}7^2[8:1],,4,4,3^6[8:1],,8,8,7^2[8:1],,4,4,3^6[8:1],,7,7,
{4}8-4[8:1],3h[4:1],5,{8}1<5[8:3]/7>3[8:3],,,,,,,1b/7b,1b/7b,,
{8}1-5[8:1]/2-4[8:1],,1x/2x,,6,6,57,57,7-5[8:1]/8-4[8:1],,7x/8x,,3,3,24,,
{4}8^5[8:1],4^1[8:1],5-8[8:1],1-4[8:1],8^5[8:1],4w8[8:1],,2x/6x,
{8}7-5[8:1]/8-4[8:1],,7x/8x,,3,3,24,24,1-5[8:1]/2-4[8:1],,1x/2x,,6,6,57,,
{4}1^4[8:1],5^8[8:1],4-1[8:1],8-5[8:1],1^4[8:1],5-1[8:1],4-8[8:1],1>8[2:1],
{4},,,,B6,B5/B7,B3,B2/B4,
{4}E7,E6/E8,E3,E2/E4,B7,B4/B6,B2,B3/B5,
{8}6h[4:1],,4,,3,3,4,3,2h[4:1],,4-8[8:1],,,,1,1,
{8}8,8,37,,6,6,5,6,7h[4:1],,{4}5,3h[8:1]/4h[8:1],1h[8:1]/2h[8:1],
{8}7h[8:1]/8h[8:1],,5h[8:1]/6h[8:1],,34,2,1,8,7,{24}6,,6,5,,,{8}4,56,7,8,1,
{8}2,{24}3,,3,4,,,{8}5,34,2,1,8,7,6,5,4,3h[8:1]/4h[8:1],,1h[8:1]/2h[8:1],,
{4}7h[8:1]/8h[8:1],5h[8:1]/6h[8:1],7^2[8:1],{8}4,4,3^6[8:1],,8,8,7^2[8:1],,4,4,
{8}3^6[8:1],,7,7,8-4[8:1],,2,2,36,36,45,,{12}3,4,5,6pp5[8:3],,,
{4},,2^7[8:1],{8}5,5,6^3[8:1],,1,1,2^7[8:1],,5,5,
{8}6^3[8:1],,2,2,1-5[8:1],,{4}6h[4:1],4,2<6[8:3]/8>4[8:3],,,
{8},3b/7b,3b/7b,,2-4[8:1]/6-8[8:1],,2x/6x,,5,5,46,46,3-1[8:1]/7-5[8:1],,3x/7x,,
{8}8,8,17,,{4}2^5[8:1],6^1[8:1],5-2[8:1],1-6[8:1],2^5[8:1],7-4[8:1],
{4}1,26,3-1[8:1]/7-5[8:1],3x/7x,{8}4,4,35,35,2-4[8:1]/6-8[8:1],,2x/6x,,
{8}1,1,28,,{4}7^4[8:1],3^8[8:1],4-7[8:1],8-3[8:1],7^4[8:1],3qq4[8:3],
{8},,,,7x,{24}6,,6,5,,,47,,,3,,3,4,,,{8}2h[8:1]/5h[8:1],,25,{24}3,,3,4,,,25,,,
{24}6,,6,5,,,{8}4h[8:1]/7h[8:1],,56,{24}7,,7,5,,,46,,,2,,2,4,,,{8}3h[8:1]/5h[8:1],,35,{24}2,,2,4,,,35,,,
{24}7,,7,5,,,{8}4h[8:1]/6h[8:1],,46,{24}7,,7,8,,,6,,6,5,,,3,,3,4,,,35,,,35,,,2,,2,1,,,3,,3,
{8}4,{24}6,,6,5,,,{8}47,47,,{4}56,3/4-8[8:1],2q6[8:1],2x/7b,
E


Re:MASTER

(115)
{8}4/6h[2:1],,5,4,3h[4:1],,{24}5,,5,4,,4,6h[2:1],,,,,,{8}4,3,2h[4:1],,4,5,
{8}6/3bh[4:1],,4,5,{24}6,,6,5,,,{8}4/6h[4:1],,3-6^4[4:1],3,6,,,,,,
{8}6-4[8:1],4,3,2,{24}2h[24:5],,,,,4,3,,,{8}3,3-5[8:1],5,6,7,{24}7h[24:5],,,,,5,6,,,6,,,
{8}6/5-1-3[4:1],7,8,7,{24}6-8-4[4:1],,,,,4,4,,,,,,{8}3,2,18,7,4h[8:1]/6h[8:1],,3h[8:1]/5h[8:1],,
{8}6-3[8:1],4,3,2,{24}2h[24:5],,,,,4,2,,,{8}35,3-8[8:1],5,6,7,{24}7h[24:5],,,,,1,7,,,26,,,
{8}3-8[8:1],7,6,5,{24}5h[24:5],,,,,1,6-8[8:1]b,,,,,,{8}4-6[8:1],3,2-4[8:1],1,8^5[8:1],7,3,,
{4}4b/3bh[4:1],{24}7h[24:5],,,,,5,6,,,{8}4,56,7,4/6h[4:1],,{24}2h[24:5],,,,,4,3,,,{8}5,34,2,
{4}5/3h[4:1],{24}7h[24:5],,,,,5,6,,,{8}46,3/5h[4:1],,{12}3,4,2,5,{24}5h[24:3],,,1,1,,,{8}28,37,,
{8}4/5-3[8:1],,2h[24:5],,2,2,24,35,6/4-6[8:1],,7h[24:5],,7,7,57,46,
{24}3-1[8:1],,,3,,,7,,,,,8,18,,,{8}27,3>5[8:3]b/6<4[8:3]b,,A3f/A6,,,,,18,7-3[8:1]/8-2[8:1],16,
{12}7b-5[8:1]/8b-4[8:1],,,78,,,4x/5x,{24}3,4,,,{8}1-7[8:1]/2-6[8:1],38,1b-5[8:1]/2b-4[8:1],,12,,{24}4x/5x,,6,5,,,{4}8/4h[4:1],
{8}7^4[8:1],6,7/2-6[8:1],3,2/8-4[8:1],7,8/1-5[8:1],2,15,{12}7,{24}7h[24:3],,,5,6,,,{8}45,34,1-7[8:1]/2-6[8:1],38,
{12}1b-5[8:1]/2b-4[8:1],,,12,,,45,{24}6,5,,,{8}7-3[8:1]/8-2[8:1],16,7b-5[8:1]/8b-4[8:1],,78,,{24}2x/4x,,2,4,,,{4}1/5h[4:1],
{8}3^8[8:1],2,3/6-1[8:1],7,6/3-7[8:1],2,36,5,68,{12}2,{24}2h[24:3],,,4,3V52-6[8:3],,,{8}6,7,8<1[2:1],8,
{4},,C,,6-4[8:1],{8}1,2,3-1[8:1]/4-6[8:1],,,,
{8}6/1-3[8:1],,4,5,3-5[8:1]/6-8[8:1],,,,5b/8b-4[8:1],,4,3,5/2-8[8:1],,4,5,
{8}6h[4:1],,C,,3,4,5^2[8:1],6,{24}6,,,,,8,1w5[8:1],,,,{3},{4}3b/7b,
{24}6/2h[24:5],,,,,4,3,,,,,,{8}6/5-8[8:1],5/6^3[8:1],,,1h[4:1],,3,24,35,6,45,3,
{8}56,8,4/7h[4:1],,5^3[8:1],5,6pp5[4:1],6,{24}3x,,,,,2,2h[4:1],,,,,,{8}4^6[8:1],4,3^1-5[4:1],3,
{4}6xh[4:1],,6/4h[8:1],{8}8/5h[8:1],7,6/3h[8:1],,7/4h[8:1],6,5/2h[8:1],,4/3h[8:1],5,
{8}6/1h[8:1],,8/2^5[8:1],1,5b,,{24}8/4h[24:5],,,,,7h[24:3],,,5,6,,6,4-8[8:1],,,{8}3,5,,{24}1/6h[24:5],,,,,2h[24:3],
{24},,4,3,,3,5,,5,4,,,5/3^8[8:1],,,2,,,4,,,,,6V85[24:5],,,,{8}5,5,,{12}2,4,3,6,{24}6h[24:3],,,4,
{8}5,B4/B6,B3/B5,,2^7[8:1],2,{24}4,,,,,6h[24:3],,,5,6,,6,5,,,{8}45,3^8[8:1],3,{24}5,,,,,7h[24:3],
{24},,5,6,,6,5,,,{8}45,4/2^5[8:1],1,{24}6,,,,,8h[24:3],,,1,8,,,{8}2<5[8:3]b/7>4[8:3]b,36,A2f/A7/D3/D7,,,,
{8},45,3-7[8:1]/4-6[8:1],25,3b-1[8:1]/4b-8[8:1],,34,,{24}1x/8x,,7,8,,,{8}5-3[8:1]/6-2[8:1],47,5b-1[8:1]/6b-8[8:1],,56,,
{24}1x/8x,,2,1,,,{8}3/4-8[8:1]b,,4/2^5[8:1],1,2/7^2[8:1],6,7/4-2[8:1],3,4/8-4[8:1],7,18,{12}2,{24}2h[24:3],,,4,3,,,
{8}24,45,5-3[8:1]/6-2[8:1],47,5b-1[8:1]/6b-8[8:1],,56,,{24}1x/8x,,2,1,,,{8}3-7[8:1]/4-6[8:1],25,3b-1[8:1]/4b-8[8:1],,34,,
{24}1x/8x,,7,8,,,{8}2/6^1[8:1],,6/3-7[8:1],4,3/6-2[8:1],5,6/4-8[8:1],3,47,5,16,{12}3,{24}3h[24:3],,,5,4-8^2[4:1]*-8^6[4:1],,,
{8}26,,,,3b/5b,{24}7,,7,1,,1,3,,3,1-5[8:1],,1,7^2[8:1],,,{8}1x,7x,4x,{24}3,,3,5,,5,7,,7,
{24}5,,5,3,,,{8}2h[8:1]/6h[8:1],,35,{24}2,,2,8,,8,6,,6,8-4[8:1],,8,2^7[8:1],,,{8}8x,2x,5,4h[24:2]/6h[24:2],3h[24:2]/4h[24:2],12,
{24}8-3[8:1],7,6,5-1[8:1],,,{8}8,5,2b,{24}3,,3,8,,2,1,,3,8-4[8:1],,2,1-6[8:1],,,{8}8,1,5b,{24}2,,2,5,,3,4,,2,
{24}6-1[8:1],,3,4-8[8:1],,,{8}6,4,5b,,56,45,3/4-8-2[4:1],,2w6[8:1],3,,
E

名前:
コメント:

タグ:

+ タグ編集
  • タグ:
最終更新:2026年09月16日 19:56