アットウィキロゴ

ヴァンパイア

アーティスト DECO*27

BPM BASIC ADVANCED EXPERT MASTER Re:MASTER
164 3 6 10 11+ 13

EXPERT MASTER Re:MASTER
譜面制作者 翠楼屋 緑風 犬三郎 じゃこレモン

BASIC


ADVANCED


EXPERT


MASTER

(164)
{8},,,
{8}4/5,4/5,,
{4}3/6,3/6,1x^4[8:1],5,
{8}7,7,,5/6,,3/5,3h[4:1]/5h[4:1],,,4h[4:1]/6h[4:1],,,3h[8:1]/4h[8:1],,5/2-4[8:1],,6,6h[4:1],,5,5,,
{4}3/7,3/7,2-6[8:1],8,
{8}7,7h[4:1],,8,,1/8,1-4[8:1]/8-5[8:1],,,,3/6,,2/5,2h[4:1]/5h[4:1],,,4/7,4h[4:1]/7h[4:1],,,,3/5,,2/6,2/6,,
{4}8b,6^3[8:1],2,
{8}1,1,1/8,,3^6[8:1],,7,,8,8,1/8,,
{4}7-4[8:1],3-8[8:1],6-3[8:1],
{8}2,2h[4:1],,5,3/6,,8x,1x,2x/6x,,3^6[8:1],,7,,8,8,1/8,,6^3[8:1],,2,,1,1,1/8,,
{4}2-5[8:1],6-1[8:1],3-6[8:1],
{8}7,7h[4:1],,4,3-8[8:1]/6-1[8:1],,,,,,1-4[8:1]/8-5[8:1],,,,
{16}3x/6x,,,2/7,,,
{8}1/8h[8:5],,6,6,,
{4}1h[2:1],3,8h[4:1],6h[4:1],5h[4:1],4h[4:1],3h[4:1],1q5[4:1]*p5[4:1],,,1-5[8:1]/8-4[8:1],,
{16}3x/6x,,,2/7,,,
{8}8/1h[8:5],,3,3,,
{4}8h[2:1],6,1h[4:1],3h[4:1],4h[4:1],5h[4:1],6,7/8,2b/5b,
{8}1,1h[8:1],5h[8:1],2h[8:1],4h[8:1],1h[8:1],5h[8:1],2,,8,8h[8:1],4h[8:1],7h[8:1],5h[8:1],8h[8:1],4,,5/7,5h[8:1]/7h[8:1],,
{4}2h[8:1]/4h[8:1],5h[8:1]/7h[8:1],2h[8:1]/4h[8:1],
{8}1/5,1/5,1^3[8:1]/5^7[8:1],,,,,8h[8:1],4h[8:1],7h[8:1],5h[8:1],8h[8:1],4h[8:1],7,,1h[8:1],5h[8:1],2h[8:1],4h[8:1],1h[8:1],5h[8:1],2,,3/4,3h[8:1]/4h[8:1],,
{4}4h[8:1]/6h[8:1],3/7,2^5[4:1]/6^1[4:1],,,3x/7x,1h[4:1],
{16}4,,,2/5,,,
{8}3/6,3/6,,8h[4:1],,
{16}5,,,4/7,,,
{8}3/6,3/6,,1h[4:1],,
{16}4,,,2/5,,,
{8}3/6,3/6,,
{4}7h[4:1],5h[4:1],4h[4:1],2h[4:1],8<1[4:3],
{8}B4/B5/Cf,{1},{8}1/8,1/8,,
{4}3/5,4/6,2-5[8:1]/8-5[8:1],2x/8x,
{16}4x/6x,,,3x/5x,,,
{8}1v4[8:1]/7v4[8:1],,,,3/5,
{16}3/5,,,2x/6x,,,
{8}7-3[8:1],,1,1-5[8:1],,
{16}6,,,7,,,
{8}8/1h[4:1],,4-8[8:1],2-6[8:1],,,8x,8x,,1-4[8:1]/7-4[8:1],,1x/7x,,,2x/6x,,2x/6x,,1,1w5[8:1],,,,
{4}4x/6x,7^4[8:1],3^8[8:1],6pp4[8:3],
{8}1h[8:5],,,,,4x,4x,,2/5,,
{16}3,4,3,4,2b,4,3,,6,5,6,5,7x,5,6,,
{8}1,1,1,,
{4}2/8qq8[4:1],4,3qq5[2:1],5,6x,7x,
{8}8,8,3,3,4,5,6,7,2-5[8:1]/8-5[8:1],,2x/8x,,,6/4qq4[8:3]*pp4[8:3],,,,,,,
{4}2x/6x,7/3-8[8:1],6-3[8:1],2-5[8:1],8<1[2:1],Cf,,,
{2}1/8,3/6h[1:1],E5,4h[1:1],E5,5h[1:1],E5,3h[1:1],E5,6xh[2:1],8xh[2:1],1xh[2:1],3xh[2:1],
{8}B7/E7/E8,,B2/E2/E3,,5,5,4,4,4/5,4/5,4/5,4/5,4/5,,
{4}2/6,1-4[8:1]/7-4[8:1],1x/7x,
{16}3x/5x,,,4x/6x,,,
{8}2v5[8:1]/8v5[8:1],,,,4/6,
{16}4/6,,,3x/7x,,,
{8}2-6[8:1],,8,8-4[8:1],,
{16}3,,,2,,,
{8}1/8h[4:1],,7x,6x,5x,4x,3x,2x,1x,2x-5[8:1]/8x-5[8:1],,2x/8x,,,3x/7x,,3x/7x,,4,4w8[8:1],,,,
{4}1x/7x,5-1[8:1]/6-8[8:1],,3-1[8:1]/4-8[8:1],,5/6,
{8}8,8,2,2,3/7,,
{16}6,5,6,5,7b,5,6,,3,4,3,4,2x,4,3,,
{8}8,8,8,,
{4}7/1-5[8:1],8-4[8:1],1-3[8:1],7-5[8:1],1-5[8:1],
{8}8,8,2,2,6,6,5,4,3,2,1-4[8:1]/7-4[8:1],,1x/7x,,,3/5-8[8:1],,4-1[8:1],,8x,8x,,
{4}3x/7x,2/6-1[8:1],3-6[8:1],7-4[8:1],1>8[2:1],Cf,,,1x/8x,,
{8}4/6,4/6,,,3/5,3/5,,,,2/7,,4/5,4^1[8:1]/5^8[8:1],,,,2x,,1b/7b,,5,6,1/7,,4,3,2/8,,7,6,3/5,,7x,,2b/8b,,4,3,2/8,,5,6,1/7,,2,3,4/6,,2x,,1b/7b,,5,6,1/7,,4,3,2/8,,7,6,3/5,,
{4}3-1[8:1]/4-8[8:1],,5-1[8:1]/6-8[8:1],,4/5,
{8}2/7,2/7,1-4[8:1]/8-5[8:1],,1b/8b,,
E

Re:MASTER

(164)
{1},
{4}3/6,B4/B5,3h[2:1],E5,6h[2:1],E5,3h[2:1],E5,
{8}5,5,4,4,5,5,4,4,6,6,3,3,6,2b,2b,,1-4[8:1]/8-5[8:1],,,,3,5/2-4[8:1],,1,,6,4/7-5[8:1],,8,,3,,2x/8x,3x/7x,,,1x/7x,2x/6x,,4/5,,3/7,,2/6,2-5[8:1]/6-1[8:1],,,,5,6,7,8,1,2,3,4/8,7,6,5,4,3,2,1,8,4/7h[8:1],5,7h[8:1],6,7h[8:1],8,7,1h[8:5],,8,7,6,5-8[8:1],2x,2x,,4,3,2,1,8,7,6,1/5,2,3,4,5,6,7,8,1,5/2h[8:1],4,2h[8:1],3,2h[8:1],1,2,8h[2:1],,1,2,3,4x/8x,3x/7x,2x/6x,,
{4}5/1-4[8:1],5,5/4-1[8:1],5,5/2-7[8:1],5,5/7-2[8:1],5,
{8}5,4,5,3,4,2,3,3/1s5[8:3],,6,6,6,6,,
{4}3/7,4/8-5[8:1],4,4/5-8[8:1],4,4/7-2[8:1],4,4/2-7[8:1],4,
{8}4,5,4,6,5,7,6,6/8z4[8:3],,3,3,3,3,,
{4}1b/8b,4h[8:1]/5h[8:1],3h[8:1]/4h[8:1],
{8}2/3,2/3,,3,4h[8:1]/5h[8:1],,5h[8:1]/6h[8:1],,6/7,6/7,,3/6,6/3h[2:1],5,4,5,6h[2:1],4,5,4,2h[2:1],4,3,4,6-8[8:1],1x,1x,,4h[8:1]/6h[8:1],,3h[8:1]/5h[8:1],,2/4,2/4,,4,3h[8:1]/5h[8:1],,4h[8:1]/6h[8:1],,5/7,5/7,,3/6,3/6h[2:1],5,7,5,3h[2:1],4,2,4,7h[2:1],6,8,5,1,,8/7^4[2:1],,
{16}1,,,2,,,
{8}3,3-8[8:1],,4^7[2:1],,
{16}1,,,2,,,
{8}3,3-8[8:1],,
{4}7,2V46[4:1],6V82[4:1],2,6,
{8}3/5,4,4/6,5,3/5,,
{4}4/6,1/8,4/5,
{8}3/8,3/8,,1/6,,2/8,3/7,2/8,3/7,,
{4}4x/6x,5-2[8:1]*-8[8:1],5b,
{16}1/3h[16:3],,,5h[16:3],,,
{8}7-2[8:1]*-4[8:1],,7,,3/5,
{16}3/5,,,7,,,
{8}2/8,1-5[8:1],1,7-3[8:1],7,2-6[8:1],2,8-4[8:1],8,3-7[8:1],3,6,6,1,2x/8x,2x/8x,,1-5[8:1]/7-2[8:1],,1b/7b,,4,3/7h[4:1],,8>5[8:3],,6,7,8,1,,4,3,2/8-4[8:1],,7/8b,,3/4,2/5,1/6,7/8,,4/5,,2/6,2-4[8:1]/6-4[8:1],,,,
{16}3,5,3,5,,1,8,,6,4,6,4,,8,1,,
{8}3-7[8:1],5-1[8:1],3,5,2b,,8qq8[8:3],1pp1[8:3],,,,,,8-4[8:1],1-3[8:1],8-6[8:1],1-5[8:1],8-4[8:1],1,8,1h[4:1],,
{4}3,5-2[8:1]*-8[8:1],5b,
{8}3/7,7/3h[4:1],,1<4[8:3],,3,2,1,8,,5,6,7/1-5[8:1],,1b/2,,5/6,4/7,3/8,1-5[8:1]/2-5[8:1],,,,3/6,3/6,,
{4}B3/B4/B5/B6/E5,7<2[4:5]/Ch[4:14],,,,,,,,
{2}2>7[4:5],,,,Cf/1xh[4:1],Cf/8xh[4:1],Cf/2xh[4:1],Cf/7xh[4:1],
{16}2,1,2,1,3,8,3,8,4,7,4,7,5,6,5h[4:1],,,,
{8}4,,1/8,1/8,,
{4}3x/6x,5/4-1[8:1]*-7[8:1],4b,
{16}8/6h[16:3],,,4h[16:3],,,
{8}2-7[8:1]*-5[8:1],,2,,4/6,
{16}4/6,,,2,,,
{8}1/7,6-2[8:1],8-4[8:1],6,8,
{16}7h[16:3],,,5,,,
{8}4/5s1[8:3],,2,2,2,2,3/8,2/7,1/6,5-8[8:1]/8-3[8:1],,5b/8b,,2/7,2/7h[4:1],,4>7[8:3],,6,5,4,3,,5,6,7/1-5[8:1],,1b/2,,5/6,4/7,3/8,1/2,,4/5,,2/6,2-4[8:1]/6-4[8:1],,,,
{16}3,4,3,4,,1,8,,6,5,6,5,,8,1,,
{8}3-7[8:1],6-2[8:1],3,6,1b,,
{4}7-2[4:1],2-5[4:1],5-8[4:1],8-3[4:1],3,
{8}B4/E4,B7/E8,B2/E2,B5/E6,1h[4:1],,
{4}3,5-2[8:1]*-8[8:1],5b,
{8}1/7,7/1-4[8:1],,5,,3/4,1/2,7/8,5/6,,3/5,6,7/1-5[8:1],,1b/2,,5/6,7/8,1/2,3-8[8:1]/4-8[8:1],,,,7,6,5,4,3,2x/8x,4x/6x,,,1x/7x,3x/5x,,1/6,,3/8,,1/5,1h[4:1]/5-1[8:1],,
{4}5b,8/2>6[4:1],6b<2[4:1],
{8}2,2,,3/1qq6[2:1],,5,4,3,2h[8:3],,7,8,3/1<5[4:1],,5b>1[4:1],,1,1,,8/2pp5[2:1],,5,6,7,8,1x,1x/4x,,1/7<3[4:1],,3b>7[4:1],,7,7,,6/8pp3[2:1],,4,5,6,7h[8:3],,2,1,6-3[8:1]/8-3[8:1],,6/8,,2/5,3/6,4/7,5/8h[2:1],,7,5,4,2-5[8:1]/8-5[8:1],,2b/8b,,
E

名前:
コメント:

タグ:

+ タグ編集
  • タグ:
最終更新:2026年07月26日 16:15