| アーティスト |
「PHANTASY STAR PORTABLE」 |
EASY
BASIC
ADVANCED
EXPERT
MASTER
(143){1},{8}
,15,26,48,,3h[8:17]/7h[8:9],,,
{1},
7-4[4:5],
3-8[4:5],
,
{16}
2h[16:13],,,,,,,,,,,,,1-5[8:1],,1,
8h[16:13],,,,,,,,,,,,,7-3[8:1],,7,
6h[16:13],,,,,,,,,,,,,5-1[8:1],,5,
4h[16:13],,,,,,,,,,,,,3-7[8:1],,3,
2h[2:1],,,,,,1,,1h[16:5],,,,,8-4[8:1],,8,
7h[2:1],,,,,,6,,6h[16:5],,,,,5-1[8:1],,5,
4h[2:1],,,,,,3,,3h[16:5],,,,,2-6[8:1],,2,
{4}1h[2:1],,8-4[8:1],,
2^5[8:1],1h[4:1],6^1[8:1],5h[4:1],
2^5[8:1],2h[4:1],{8}6^1[8:1],6,{4}6h[4:1],
3^8[8:1],4h[4:1],7^4[8:1],8h[4:1],
3^8[8:1],3h[4:1],{8}7^4[8:1],7,7h[4:1],,
2h[8:3],,,3-8[8:1],,,1^4[8:1],,
,,6,5,,6-1[4:1],,,
8-4[4:1],,,2^7[2:1],,,5-2[4:3],,
{1},
{8}
,,,,,,,8,
8^5[8:1],,8-4[8:1],,8-5[8:1],,8-3[8:1],,
8,,,,,2,3,4,
1^4[8:1],,1-5[8:1],,1-4[8:1],,1-6[8:1],,
1,,,,,8-5[8:1],5-2[8:1],,
,,,,,1-4[8:1],4-7[8:1],,
,,1h[4:1],,8h[4:1],,7h[4:1],,
6h[4:3],,,,3h[4:1],,,,
3-7[4:1]/6-2[4:1],,,,,,,7,
7^4[8:1],,7-3[8:1],,7-4[8:1],,7-2[8:1],,
7,,,,,4,3,2,
2^5[8:1],,2-6[8:1],,2-5[8:1],,2-7[8:1],,
2,,,,,,7-3[2:1],,
,,1-5[2:1],,,,2-6[2:1],,
,,4-8[2:1],,,,7^4[2:1],,
,,,,,1,2,3h[8:3],
8h[4:1],,,3^8[4:1]/8^5[4:1],,,,,
{16}
7h[16:3],,,6h[16:3],,,5h[16:3],,,6,,,56,,,,
2h[16:3],,,3h[16:3],,,4h[16:3],,,3,,,43,,,8,
8h[16:3],,,7h[16:3],,,6h[16:3],,,7,,,78,,,1,
1h[16:3],,,2h[16:3],,,3h[16:3],,,2,,,21,,,7,
7h[16:3],,,5h[16:3],,,3h[16:3],,,2,,,24,,,2,
1,,1,2,,7,8,,8,7,,7,67,,,8,
7,,7,8,,1,2,,2,1,,2,23,,,3,
4,,4,3,,6,5,,5,6,,6,76,,,5,
6,,6,5,,4,3,,3,4,,3,32,,,,
{1}
1h[1:1],
3h[1:1],
{8}
5h[8:7],,,,,,,7h[2:1],
,,,8b,,,8h[4:1],,
6h[8:3],,,4h[8:3],,,2h[4:1],,
8-4[4:1],,,,,6-1[4:1],,,
3-8[4:1],,,,,,,8^3[4:3]/1^6[4:3],
{1},
{8},,,,,,,8,
8-3[8:1],,8-5[8:1],,4-1[8:1],,4-7[8:1],,
,,,,,3,2,1,
1-6[8:1],,1-4[8:1],,5-8[8:1],,5-2[8:1],,
,,,,,1-6[8:1],6-2[8:1],2-5[8:1],
,,,,,8-3[8:1],3-7[8:1],7-4[8:1],
,,,,8h[4:1],,1h[4:1],,
2h[4:3],,,,7h[4:1],,,,
7-3[4:1]/2-6[4:1],,,,,,,8,
8^3[8:1],,8^5[8:1],,4^7[8:1],,4^1[8:1],,
,,,,5,4,3,2,
1^6[8:1],,1^4[8:1],,5^2[8:1],,5^8[8:1],,
,,,,,,2-6[2:1],,
,,8-4[2:1],,,,7-3[2:1],,
,,5-1[2:1],,,,2^5[2:1],,
,,,,,8,7,6h[8:3],
1h[4:1],,,6^1[8:1]/1^4[8:1],,,,2h[8:15]/7h[8:15],
{1},
{8},,,,,,,1b/5b,
{1},,
E
Re:MASTER
(143){1}
,{8},15,26,3-8[8:1]/7-4[8:1],{4},,
7pp8[4:1],8-5[4:1],,,2^7[4:1],7-3[4:1],3^6[4:1],,
,7pp8[4:1],8-5[4:1],,4>8[2:1],,,,
{8}1-6[8:1],6-2[8:1],2-5[8:1],,,,,,,57,18,24,3h[16:3],{16},2h[16:3],{8},1,
8-3[8:1],3-7[8:1],{4}7-4[8:1],,,,12,56,38,
4<2[4:1],,6,{8},24,18,57,,6h[4:1],,4h[4:1],,2,
1-6[8:1],6-2[8:1],2-5[8:1],5qq1[8:5]*pp1[8:5],{2},,1-5[8:1]/5<1[8:1],
4-2[8:1]/8-6[8:1],2-5[8:1]/6-1[8:1],1^6[8:1]/5^2[8:1],2v4[8:1]/6v8[8:1],
4p7[8:1]/8p3[8:1],3^6[8:1]/7^2[8:1],{8}4,5,4,27,,18,36,,
{2}4-2[8:1]/8-6[8:1],2q6[8:1]/6q2[8:1],2^7[8:1]/6^3[8:1],3v5[8:1]/7v1[8:1],
1q6[8:1]/5q2[8:1],2^7[8:1]/6^3[8:1],8<1[2:1],,
{16}16,,7,8,6,,2,1,3,,6,5,{8}7,48,
4-1[8:1]/8-5[8:1],,48,,1v4[8:1]/5v8[8:1],,1V74[4:1]/5V38[4:1],,,,,,,37,26,15,
1-4[8:1]/5-8[8:1],,15,,4v1[8:1]/8v5[8:1],,4V61[4:1]/8V25[4:1],,,,,,,16,7-4[8:1]/8-3[8:1],16,
78,,,16,,38,1-6[8:1]/2-5[8:1],38,{4}12,47,13,68,
1-4[8:1]*-6[8:1],1,8-3[8:1]*-5[8:1],8,{8}1z5[2:1]/5s1[2:1],15,,,,,,37,
3-8[8:1]/7-4[8:1],,37,,4v7[8:1]/8v3[8:1],,4V27[4:1]/8V63[4:1],,,,,,,48,37,26,
2-5[8:1]/6-1[8:1],,26,,1v6[8:1]/5v2[8:1],,1V36[4:1]/5V72[4:1],,,,,,,16,7-4[8:1]/8-3[8:1],16,
78,,,16,,38,1-6[8:1]/2-5[8:1],38,12,,,38,,,1-6[8:1]/8-3[8:1],,
18,,,18,,57,45,24,13,,45,68,,18,45,2b>8[8:5]/7b<1[8:5],{1},
{16}3h[16:3],,,4h[16:3],,,5h[16:3],,,6h[16:3],,,7-3[8:1],,,,1h[16:3],,,8h[16:3],,,7h[16:3],,,6h[16:3],,,5-2[8:1],,,,
8h[16:3],,,1h[16:3],,,2h[16:3],,,3h[16:3],,,4-8[8:1],,,,1h[16:3],,,3,,,8h[16:3],,,6,,,27,,,7,
7h[16:3],,,8h[16:3],,,1h[16:3],,,2h[16:3],,,3-7[8:1],,,5,5h[16:3],,,4h[16:3],,,3h[16:3],,,2h[16:3],,,1-6[8:1],,,4,
4h[16:3],,,5h[16:3],,,6h[16:3],,,7h[16:3],,,8-4[8:1],,,5,5h[16:3],,,7,,,4h[16:3],,,2,,,27,,,,
{1}5>6[2:1]/7q5[2:1],2p4[2:1]/4<3[2:1],
2>1[2:1]/8qq1[2:1],1pp8[2:1]/7<8[2:1],
5>6[2:1]*p6[2:1]/6,3/4<3[2:1]*q3[2:1],
1/2>1[2:1]*pp1[2:1],7<8[2:1]*qq8[2:1]/8,
{16}38,,2,1,3,,7,8,6,,3,4,{8}2,15,
1q5[8:1]/5q1[8:1],,1^6[8:1]/5^2[8:1],,1v4[8:1]/5v8[8:1],,1V74[4:1]/5V38[4:1],,,,,,,26,37,48,
4p8[8:1]/8p4[8:1],,4^7[8:1]/8^3[8:1],,4v1[8:1]/8v5[8:1],,4V61[4:1]/8V25[4:1],,,,,,,25,3-8[8:1]/4-7[8:1],25,
34,,,25,,47,5-2[8:1]/6-1[8:1],47,{4}56,38,57,24,
5-2[8:1]*^8[8:1],5,4^1[8:1]*-7[8:1],4,{8}37,26,15,4h[8:3]/8h[8:3],,,,48,
4q8[8:1]/8q4[8:1],,4^1[8:1]/8^5[8:1],,4v7[8:1]/8v3[8:1],,4V27[4:1]/8V63[4:1],,,,,,,26,37,48,
1p5[8:1]/5p1[8:1],,1^4[8:1]/5^8[8:1],,1v6[8:1]/5v2[8:1],,1V36[4:1]/5V72[4:1],,,,,,,25,3^8[8:1]/4^7[8:1],25,
34,,,38,,47,5^2[8:1]/6^1[8:1],47,56,,,16,,,4-7[8:1]/5-2[8:1],,
45,,,18,,68,18,13,24,,18,57,,45,18,3b>5[8:5]/6b<4[8:5],{1},
{16}45,,3,4,2,,6,5,7,,1,8,1,,2b/7b,,{1},,E
最終更新:2026年10月16日 21:43