BASIC
ADVANCED
EXPERT
(150)4-1[4:1]/5-8[4:1],,,1x/8x,{12}2,1,2,1,,,7,8,7,8,,,{4}1/6,4/5,3/7,,E6,,E4,,1/8,5/7,4/5,2<4[4:3]/4,,,,8z4[2:1],,,,3,3h[1:1],,4,{12},,5,{2}5h[1:1],4,3h[1:1],{4}4,{12},,5,{4}5,3/5,1b/7b,1b/7b,{12}6,,6,8,,8,1,,,2/8,,,3,,3,1,,1,8,,,1/7,,2/6,2-4[8:1]/6-4[8:1],,,,,,3/4,,4/5,,5/6,,7/8,,1/8,,1/2,,{2}4b/8b,
{12},,A3,,E4,,E5,,A5/D6,,,,{12}A6,,E6,,E5,,A4/D4,,,{12},A2,,E3,,E4,,A4,,A5/D5,,,,A7,,E7,,E6,,A5,,A4/D5,,,,{12}2,,2h[12:10],,E2,,E3,,E4,,,,6,,6h[12:10],,E8,,E7,,E6,,,,3,,3h[12:10],,E4,,E3,,E2,,,,7,,7h[2:1],,E6,,E7,,E8,,,1x/8x,,,2,1,2,1,,,{4}3/8V25[2:1],,,,{12}7,8,7,{4}8,1/6,3pp1[2:1]/4,,,8,,
{2}1b-5[8:1]/2b-4[8:1],8-4[8:1]/7-5[8:1],{4}3/4,1/2,7/8,6/5pp5[2:1]*qq5[2:1],,,,4/6,1b/2b,{12},,8,8,,,1>6[4:1]/5,,,6b,,,,,7,7,,,4/8<3[4:1],,,3b,,,,,2,2,,,3/8,,,
7h[12:2],,5h[12:2],,6h[12:2],,3h[12:2],,4h[12:2],,2h[12:2],,8h[12:2],,1h[12:2],,7,,{4}2b/6b,,5/7,1/8,2/4,{2}3/4w8[8:1],6/5w1[8:1]b,
{4},7<4[2:1],,,,2>5[2:1],,,6,6h[1:1],,5,{12},,4,{2}4h[1:1],5,6h[1:1],{4}5,{12},,4,{4}4,6/4,2b/8b,2b/8b,{12}3,,3,1,,1,2,,2,7,,7,8,,8,6,,6,3,,3,4,,4,1-5[8:1],,,,,,4/6,,3/5,,2/4,,1/5,,2/6,,3/7,,{4}4/8h[2:1],,1,{12}1b/8b,1b/8b,,{12}2h[2:1],,1,,1,,7h[2:1],,8,,8,,3h[2:1],,1,,1,,6h[2:1],,8,,8,,2h[2:1],,4,,4,,7h[2:1],,5,,5,,{4}2x,2x/7x,A8/E1f/A1,A6/E7f/A7,A3/E3f/A2,A4/E5f/A5,Ch[2:1],,,,1h[2:1],,8,,
{2}8b-4[8:1]/7b<4[8:1],1-5[8:1]/2>5[8:1],{4}6/5,8/7,2/1,3v1[4:1]/4<8[4:1],,,2/8,3-6[8:1]/7-2[8:1],,{12},,1,1,,,4>7[4:1]/8,,,7b,,,,,6,6,,,1/5<2[4:1],,,2b,,,,,3,3,,,4/5,,,
4h[12:2],,3h[12:2],,2h[12:2],,1h[12:2],,8h[12:2],,7h[12:2],,6h[12:2],,5h[12:2],,4,,{2}3b/6b,
{2}3h[1:1],E4,4h[1:1],E5,5h[1:1],E6,6h[2:1],3,4qq1[2:1]/5pp8[2:1],,{12}1bx,,1,8,,8,1,,1,2,,2,3,,3,4,,4,5,,5,5/6,,,8,,8,1,,1,8,,8,7,,7,6,,6,5,,5,4,,4,{4}3/4,{2}2h[12:2]/5h[4:1],7h[12:2]/4h[4:1],3h[12:2]/5h[4:1],6h[12:2]/4h[4:1],
{2}4h[1:1]/5,E4,5h[1:1],E6,3h[1:1],E3,6h[1:1],E7,2h[1:1],E4,7h[1:1],E6,E3/E4/B3,E7/E6/B6,E5/B5/B4,Ch[2:1],{4},1bx/8bx,2-5[8:1]/7-4[8:1],,5/6,1/2,7/8,3/4pp4[2:1]*qq4[2:1],,,,2<4[2:1]/6,B5/B4/E5f,{12},,8,{4}8,3v8[8:1]b/7<4[8:1]b,,{12},,1,{4}1,2>5[8:1]/6v1[8:1],,{12},,8,{4}8,2/6,{12}1h[12:2],,7h[12:2],,5h[12:2],,3h[12:2],,1h[12:2],,7h[12:2],,5h[12:2],,3h[12:2],,1h[12:2],,{4}8b,,5/6,1/3,6/8,3/4w8[8:1],,5w1[8:1]b/6,,,8V64[2:1],,,,1V35[2:1],,,,,3>8[4:1]/7<4[4:1],,,3-6[8:1]b/7-2[8:1]b,E
MASTER
(150){4}1bx>8[2:1]b/E5f/B5/B4,,,,{12}2,4,3,7,5,6,3,4,2,6,5,7,{4}3-5[8:1],3/7-1[8:1],2-6[8:1]/7,2/8<1[4:3],8h[4:3],,,,
2bhx[12:2]/4bhx[12:2],5bhx[12:2]/4bhx[12:2],5bhx[12:2]/7bhx[12:2],1bhx[12:2]/8bhx[12:2],2>5[4:1]/7,,6<1[4:1],,2-5[8:1],,4x/7x,{12}6,6,5,
{12}6h[4:1],,,4,4,5,3h[4:1],,,5,4,6,{4}5-3[8:1],7-5[8:1],,{12}2,2,4,3h[4:1],,,4h[4:1],,,5,,5,,4/6,,{2}3-1[8:1]/7-5[8:1],6-8[8:1]/2-4[8:1],{12}7,5,6,4,5,4,{4}6-3[8:1],2,2-5[8:1],6,4/7h[4:1],5h[4:1],4-6[8:1],3,{12}5/7,,6,,4/5,,2/4,,3,,4/5,,{2}2b/7b,
{12}1/8,,2,2,1,,{2}1h[12:4]/2h[12:2],3h[12:4]/8h[12:2],2h[12:4]/1h[12:2],7h[12:4]/8h[12:2],6h[12:4]/1h[12:2],{12}7h[12:2]/8h[12:2],,,,6,,4x/5x,,3x/6x,,,,1/8,,2,2,1,,1/8,,7,7,8,,1/8,,2,1,2,,1/8,,7,8,7,,1/8,,2,1,3,,8/1,,7,8,6,,1/8,,2,1,3,,4-1[8:1]/5-8[8:1],,,,,,{4}1hx[12:2]/2hx[12:2],8hx[12:2]/7hx[12:2],4bx>8[2:1]/5,,,,8hx[12:2]/7hx[12:2],1hx[12:2]/2hx[12:2],5bhx[1:1]/4,6x<3[2:1],,,,,
{12}3bx-8[8:1]/5bx,,4,3,,,6x-1[8:1]/4x,,5,6,,,{4}2b-6[8:1],1-5[8:1]/2,1/8-4[8:1],7qq1[4:1]/8,1b/7b,{12}3,,2,1/3>7[4:1],,,7>3[4:1]b,,,3b,,,5-1[8:1],,4,5,,,2/8,,3/7,3bh[4:1]/7hb[4:1],,,,,5/6,5/6,,4-7-5[4:1]/5,,3/4,,2b,,,1h[4:1],,5,5h[12:2],,3,,2/6,,1-5[8:1]/7-5[8:1],1/7,,1b/7b,,,8-4[8:1]/2-4[8:1],8/2,,8b/2b,,,1-5[8:1]/7-5[8:1],1/7,,1-3[8:1]/7-3[8:1],,,{4}1b/7b,,3-1-5[4:1]/7,5-3[8:1],8,2-5[8:1]/6-1[8:1],2b/6b,7-4[8:1]/3-8[8:1],{2}7b/3b,6>3[4:1],,3<6[4:1],{4},
{12}7,7,5,6h[4:1],,,4,4,5,3h[4:1],,,5,4,6,5-3[8:1],,,7-5[8:1],,,2,,,3,3,5,4h[4:1],,,6h[4:1],,,5,,5,,4/6,,4-2[8:1]/6-4[8:1],,,,,,2b/4b,,5b/4b,,5b/7b,,6-3[8:1],,4,,2,,2-5[8:1],,4,,6,,7-4[12:2],,4-6[12:1],,3,,2-5[12:2],,5-3[12:1],,6,,7,,,1h[4:1]/8,,,2h[12:2],,3h[12:2],,4h[12:2],,5h[12:2],,6h[12:2],,7h[12:2],,{2}8b,{4}1h[4:1],{24},8x,1x,,,,{12}2/7h[12:4],,E1,,E8,,2h[12:4],,E2,,E3,,7h[12:4],,E8,,E7,,2h[12:4],,B1,,B3,,7h[12:4],,B8/A8,,B6/A6,,2h[2:1],,E2/D2,,E3/D3,,E4/D4,,,{4}2x/6x,3b/4,6b/5,8b/7,1b/2,1/2pp1[4:3],,,,8h[2:1],,E1,,
{12}3bx>8[8:1]b/5bx,,4,3,,,6x<1[8:1]b/4x,,5,6,,,{4}2b-6[8:1],2/4-8[8:1],4/5-1[8:1],5/7qq1[4:1],3b/7b,{12},,2,1/3V17[4:1],,,7V13[4:1]b,,,3b,,,6v1[8:1],,4,6,,,2/8,,3/7,3bh[4:1]/7bh[4:1],,,,,5/6,5/6,,4q6[12:4]/5,,3/4,,2b,,,1h[12:2],,5,5h[12:2],,
3,,2/6,,1-5[8:1]/7-5[8:1],1/7,,1b/7b,,,8-4[8:1]/2-4[8:1],8/2,,8b/2b,,,1-5[8:1]/7-5[8:1],1/7,,1-3[8:1]/7-3[8:1],,,{2}1b/7b,1q5[4:1]/5,8p4[4:1],2q6[4:1],7p3[4:1],1p8[2:1],,5p4[2:1],,{12}3h[4:1],,,5,4,5,3,4,3,2x/5x,,,
{12}8<5[8:1],,4,8>3[8:1],,4,8<5[8:1],,4,8,,,1x>4[8:1],,5,1<6[8:1],,5,1>4[8:1],,5,1,,,{4}5-1[8:1]b/6-8[8:1]b,5b/6b,4-8[8:1]b/3-1[8:1]b,4b/3b,5>1[4:1]/6,1<5[4:1],5-1[8:1],,{12}2hx[12:2],4,4,3h[12:2],5,5,4h[12:2],6,6,5h[12:2],7,7,5/6,,3,2/4,,6,5/7,,1/8,2b/7b,,,{2}E3/B3,E4/B4,E5/B5,E6/B6,B3/E4,E5/B4,E6/B5,E7/B6,B3/A3,B4/A4,B5/A5,B6/A6,{12}D4,,D5,,D6,,E4,,E5,,E6,,2,2,2,4,4,4,5,5,5,7,7,7,4w8[8:1]b,,,A4f/D4/D5,,,
{12}2bx-5[8:1]b/6bx-1[8:1]b,,,2b/6b,,,{4}8bx<5[8:1],3>8[8:1]/8,3/6>3[8:1],1-5[8:1]/6,1bx/8bx,{12}3/7,,5,4/6<3[4:1],,,3>6[4:1]b,,,E1/E8/B8f,,,4-8[8:1],,5,4,,,1/7,,2/6,2bh[4:1]/6bh[4:1],,,,,5/7,5/7,,4pp8[8:3]/5,,2/4,,1bx,,,3h[12:2],,1,1h[12:2],,8h[12:2],,6,,7-3[8:1]/8-4[8:1],7/8,,7b/8b,,,2-6[8:1]/1-5[8:1],2/1,,2b/1b,,,8-2[8:1]/7-5[8:1],7/8,,8-4[8:1]/7-3[8:1],,,{4}7b/8b,,2/6,4-1[8:1]/8-5[8:1],4/8,3<6[8:1]/7>2[8:1],3/7-3[8:1]b,7b,A1/B1/Cf/B5/A5,,{12}1,2,3,4>1[4:1],5,6,{2}7,{12}8,7,6,5<8[4:1],4,3,{4}2,,,{12}4,3,2,5,6,7,3,2,1,6,7,8,C,E
Re:MASTER
- MASTER譜面を追加しました。修正等ありましたらよろしくお願いします。 -- Sugar (2026-05-09 23:33:17)
- EXPERT譜面を追加しました。修正等ありましたらよろしくお願いします。 -- Sugar (2026-06-29 20:45:47)
最終更新:2026年06月29日 20:45