アットウィキロゴ

OTOGEMA

アーティスト ビートまりお

BPM BASIC ADVANCED EXPERT MASTER Re:MASTER
145 4 7 10+ 13+ -

EXPERT MASTER Re:MASTER
譜面制作者 はっぴー Jack & はっぴー vs からめる & ぐるん -

BASIC


ADVANCED


EXPERT


MASTER

(145){4}
,4,,4,,4,,4,
,4,,4,,4,,4,
Cfh[1:3],4,,4,,4,,4,
,4,,4>5[2:1],,,,,

{16}1,8,1,8,2,4,3,4,2-6[8:1],,17,,26,,8,,57,,3,4,3,,25,,1^4[8:1],6,8,7,1,,,,
6,5,7,5,6,,47,,25,,7,8,{8}7^4[8:1],1,7^2[8:1],2,7-3[8:1],3,7,4,2b/6b,,
{16}8,1,8,1,7,5,6,4-8[8:1],5,3,,1,{8},2-5[8:1],6-1[8:1],2,6,3,24,57,1b/8b,,
45,{16}2,4,3,5,4,6,{8}5-1[8:1],37,5,,2-4[8:1],8-6[8:1],2-5[8:1],8-5[8:1],2b,8b,1b,,

37,6,{16}3,4,3,,25,,3,,6,5,6,,47,,6,,4,5,4,,26,,3,,5,4,5,,
3x/7x,,6,,3,4,2,,4x/5x,,4,,6,5,7,,6h[8:1]/8xh[8:1],,,1h[8:1]/3h[8:1],,,26,,5h[8:1]/7xh[8:1],,,2h[8:1]/4h[8:1],,,37,,
4/6x,,5,,2,4,2,,3/5x,,6,,7,5,7,,4x/6,,3,,2,1,2,,3x/5,,6,,7,8,7,,
2x/6,,3,,5,4,5,,1x/8,,27,,4>5[8:5],5,4,5,{1}Cf,

{16}7,5,,2,4,3,4,1,8,1,8,2,7,,6,5,6,,3,4,,25,,1,8^5[8:1],2,1,2,8,,,,
3,4,2,,6,5,7,5,6,,47,,25,,8x,,12,,78,,34,,56,,1-5[8:1]/8-4[8:1],27,36,,1x/8x,,,,
27,,56,,3,4,2,4,3,,46,,5,7,5,7,2,4,2,4,1,8,1,8,{8}37,45,26,,
7-4[8:1],3-8[8:1],7,3,6-1[8:1],2-5[8:1],6,2,{16}7,8,7,8,5,4,5,4,1w5[8:1],2,1,2,Cf,,,,
8,,17,,26,,3,4,1,,28,,37,,6,5,{8}8,17,4,28,3/7-3[8:1],46,37,,
12,78,{16}6,5,7,2,4,3,4,2,,18,,7,5,6,5,7,3,4,2,,7-4[8:1]/8-3[8:1],,16,,7x/8x,,,,
25,,6,5,7,,3,4,2-6[8:1],1,2,1,2,,,,47,,3,4,2,,6,5,7-3[8:1],8,7,8,7,,,,
12,,45,,78,78,,12,1-6[8:1]/2-5[8:1],,38,,1x/2x,,,,7,8,7,8,5,4,{8}5,3b^6[8:1],1b/8b,7b,,

6-3[8:1]/7-2[8:1],,,,48,3,26,7,38,2>8[4:1],1,8,,5,4,35,
2-5[8:1]/6-1[8:1],,26,,3h[8:1]/7h[8:1],,2^5[8:1]/6,8,2^7[8:1],7,2-6[8:1],6,2,5,3b/7b,,
{16}6,5,{8}8,2-7[8:1]/3-6[8:1],,,,48,3,15,7<1[4:1],8,1,,4,5,46,
5/7-3[8:1],,37,1h[4:1],,8-4[8:1],,1^4[8:1]/8x,2,1x/8^5[8:1],7,1-5[8:1]/8x,2,1x/8,7b,,

5-8[4:5],5,4,4,3,3,3,3,4,4,5,5,4,4,3,3x,
4x-1[4:5],4,5,5,6,6,6,6,5,5,4,4,5,5,6,6x,
5x-8[4:5],5,4,4,3x,3,4,4x,5x,5,4,4,3x,3,2,2x,
1b-5[8:1]/8b-4[8:1],,1b^4[8:1]/8b^5[8:1],,1b/8b,,2x/7x,,1b,2b,3b,4b,5b,6b,1b/8b,,

{2}7-4[8:1],1h[4:1]/7p4[8:1],{32}1b,2b,3b,4b,5b,6b,7b,8b,{4}1b,8w4[8:1],,
{16}3^8[8:1],6,3,6,{8},,7^4[8:1]*q4[8:1],4qq4[16:3],,,5-1[8:1],,5^6[32:1]*^7[16:1]*^8[32:3]*<1[8:1]*<2[32:5]*<3[16:3]*<4[32:7],,,,,,
2x,4x/6x,1x,2x/7x,E6/E8/B1/B2/B3/B4/B5/B6/B7/B8,,1x/8x,,2x,4x/6x,2x,3x/7x,Cf/E1/E5/B4/B8,,1x/8x,,
6,6h[4:1],E5/B5,E3/B2,3,3h[4:1],E5/B4/B5,,{32}8,7,6,5,4,3,2,1,8,7,6,5,4,3,2,1,{4}4w8[16:1]/8,{32}4b,Cf,,,{8},

,,1b/7b,,6-1[8:1],6,3-8[8:1],3,5v2[8:1],5,4v7[8:1],4,6-1[8:1],6,3-8[8:1],3,
5,5,4>8[4:1],4,{4}8<4[4:1],4>8[4:1],8<4[4:1],4>8[4:1],8,4,
7v4[8:1]/8^3[8:1],78,{8}3x-8[8:1],3x,6-1[8:1],6,4v7[8:1],4,5v2[8:1],5,3-8[8:1],3,6-1[8:1],6,
4,4,35,3/5-1[8:1],,4>5[8:3]*q5[8:3]/5,,4b,,,,,Cf/B3/B4/B5/B6,,1b/8b,,
2-6[8:1],1,2/7-4[8:1],8,1-5[8:1]/7,2,1/7-3[8:1],6,4-1[8:1]/7,5,4/6-3[8:1],7,2-5[8:1]/6,1,28,,
{16}4x,5,4x,5,3x,6,3x,6,1x,8,2x,7,1x,8,2x,7,{8}1-5[8:1],28,1,7,8w4[8:1],17,8,,
3x-1[8:1]/5x,2,3/4-8[8:1],5,1-5[8:1]/4,2,1/7-4[8:1],8,3-7[8:1]/7,2,3/5-8[8:1],4,1^4[8:1]*^6[8:1]/5,2,1b,,
{16}3,4,3,5,3,4,3,2,3,1,3,8,3,7,3,6,3^8[8:1],5,3,4,{4}3,4bw8[8:1]/5bw1[8:1],4b/5b,
{1},,,E

Re:MASTER


名前:
コメント:

タグ:

+ タグ編集
  • タグ:
最終更新:2026年06月06日 15:29