アットウィキロゴ

ヱデン

アーティスト koyori(電ポルP)

BPM BASIC ADVANCED EXPERT MASTER Re:MASTER
137 3 6 9 12+ -

EXPERT MASTER Re:MASTER
譜面制作者 アマリリス はっぴー -

BASIC


ADVANCED


EXPERT


MASTER

(137){4}4/5,3<5[8:1]/4h[4:13],,3<5[8:1],,3<5[8:1],,2,2,3<5[8:1],,3<5[8:1],,2,3,4/5,5/6,6>4[8:1]/5h[4:11],,6>4[8:1],,6>4[8:1],,7,7,6>4[8:1],,6,6,{16}5/6,,7,,7,5,,4/5,,4/5,,3,4,2,,6,5,7,,7/8,,1/2,,3,4-1[8:1]*-7[8:1],,,,4x,,,,7,8,,1/8,,1/2,,3,4,,4,,{4}2z6[4:1]/5,6z2[4:1],2,6,3x/4x,{16}2,1,,8/1,,8/7,,6,5,,5,,{4}7s3[4:1]/4,3s7[4:1],7,3,6x/5x,{16}7,8,,1/8,,1/2,,3,4,,4,,{4}2s6[4:1]/5,6s2[4:1],2,6,3x/4x,{16}2,1,,8/1,,8/7,,6,5,,5,,{4}7z3[4:1]/4,3z7[4:1],7,3,

{8}6xqq3[8:3]/4x,,3,,2,2,1,1,4,4,{16}7,5,,1/8,,1/8,,2,{8}4<7[8:1],,2xpp5[8:3]/4,,5,,6,6,7,7,4qq5[8:3],,{16}6,6,,7,,8,,1,1,,,,3b-5[8:1]/8,,,,7,7,,8,,1,,2,2,,3,,4/6-4[8:1],,,,2,2,,1,,8,,7,7,,,,{8}4/6,4/6,{4}5h[8:1]/7h[8:1],4h[8:1]/8h[8:1],5h[8:1]/7h[8:1],{8}4,3,{4}4h[8:1]/2h[8:1],5h[8:1]/1h[8:1],5h[8:1]/3h[8:1],2b/6b,{8},E6,E5,E4,,,3xqq5[8:3]/5,,6,,7,7,8,8,5,5,{16}2,4,,1/8,,1/8,,7,5-1[8:1],,,,{8}5/7-3-6-4[8:3],,2,,1,1,2,2,6pp5[8:3],,{16}4,4,,3,,2,,1,1,,,,2b/6b-1[8:1],,,,3,3,,4,,5,,6,6,,5,,3-8[8:1]/7,,,,6,6,,5,,4,,3,3,,4,,{8}3/5,3/5,{4}4h[8:1]/2h[8:1],5h[8:1]/3h[8:1],4h[8:1]/2h[8:1],{8}1,8,{4}5h[8:1]/7h[8:1],5h[8:1]/3h[8:1],4h[8:1]/6h[8:1],3b/7b,

{8}8-4[2:3],,,3,3h[2:1],,,,,,,,2,,,,1-5[2:3],,,6,6h[2:1],,,,,,,,7,,,,{4}8<5[4:1],,4,4,3h[4:1],4,{8}5,4/6,4/6,,{16}7,1,,3/5,,2/6,,2,8,,4/6,,3/7,,,,{8}2/5,6,4/7,3,2/6,7,4/8,3,2/6,7,1>4[8:1]/8<5[8:1],1/8,1x/8x,,

{8}3>6[4:1]/5,,6b<3[4:1],,5,,4,4,5-1[8:1],5,5>2[8:1]*<8[8:1],,5w1[8:1],,5,,2x/8x,,8<4[4:1]b,8,8h[4:1],,,,1>5[4:1]b,1,1h[4:1],,,8,8,1/7,1/7<2[4:1],,2>7[4:1],,1,,8,8,1-3[8:1]*-4[8:1],1,1-7[8:1]*-6[8:1],,1-5[8:1],,1,,4/6,,7>4[4:1],7,7h[4:1],,,,2<5[4:1],2,2h[4:1],,,1,1,,2/8-4[8:1]b,,8x/3,,{16},,2,2,4,,5-3[8:1]*-8[8:1],,,,,,,,3/8,,,1/6,,2,4>1[8:1]*<7[8:1],,,,4,,,,1x/7x,,7,5,6,,2,4,3,,6,5,7,,5/8,,,,3h[8:1]/7h[8:1],,,2h[8:1]/6h[8:1],,,1-5[8:1]/8-4[8:1],,,,1b/8b,,,,3/6,,,,{8}5qq1[8:3],5,5h[2:1],,,,2h[8:1],4h[8:1],5h[8:1],7h[8:1],1-4[8:1],1,8,,6,6,4/6,6,3,3,5/3,3,7,7,5/7,7,2,2,4/2,2,5,5,3/6,3/6,2/7,2/7,1/8z4[2:1],1h[8:41]/8,{4},,,,A5,A6,A7,A8,B5,B6,B7,B8,B4,B3,B2,B1,D4,D3,D2,D1,8x<5[4:1],,4q6[2:1],,8xbh[2:1],,,4x-1[8:1],{8}6,6,6,6,5-8[8:1],5,3,3,4,4,4w8[8:1],4,,,

{8}2b/6b<3[4:1],,3>6[4:1],,5<2[4:1],,3x>6[4:1],4x,5x<2[4:1],4x,3x>5[4:1],4x,5x-1[8:1],4x,3hx[4:1],,8b,,6-1-5-2[8:3],6,6h[4:1],,,,3-8-4-7[8:3],3,3h[4:1],,,2,2,3x/7x,3x/7x<2[4:1],,2>8[4:1],,8<3[4:1],,2x>8[4:1],1x,8x<3[4:1],1x,2x>8[4:1],1x,8x-4[8:1],1x,2hx[4:1],,4x>7[8:3],,5,5,5,5,5<2[8:3],5,4,4,4,4,4-8[8:1],4,4-2[8:1]*-6[8:1],,4>5[4:3],,{4}Cf,,,,

{8}6,7,5/7,4,3,2,2/4,5,5x/6x,,7x/8x,,6,7,5/8,4,3,2,1/4,5,6,7,5/7,4,3h[8:1]/5h[8:1],,3h[8:1]/5h[8:1],,3,2,2/4,5,6,6,5-1[8:1]/7,5/7,8-4[8:1],8,1h[4:9],,4<2[2:1],,,,,,,,4<2[2:1],,,,,,,,D1,E

Re:MASTER


  • MASTER譜面を追加しました。修正等ありましたらよろしくお願いします。 -- Sugar (2026-05-25 22:28:25)
名前:
コメント:

タグ:

+ タグ編集
  • タグ:
最終更新:2026年05月25日 22:28