| アーティスト |
t+pazolite & Massive New Krew feat. リリィ(CV:青木志貴) |
BASIC
ADVANCED
EXPERT
MASTER
(155){1},
{4},,4,4,3h[2:1]/5h[2:1],,,3,35,{8}46,46,,57,,,7h[4:5],,,,5,,4,4h[8:3],{4},,7,46,3/5-8[2:1],,3,2,1q8[4:3],,,,,{8},1,1,,2,2h[8:9],,,,,8,,1,,
3,,24,24,,35,,4h[4:1]/6h[4:1],,,,4x/6x,,3x/5x,,2x/4x,,2,2,4,,25,,1h[4:1]/7h[4:1],,,,1x/7x,,2x/6x,,3x/5x,,4,4,6,,47,,2h[4:1]/8h[4:1],,,,46,,28,,37,,A2,A3,A4,A5,A6,A7,,18,18,,3h[8:3]/6h[4:1],{4},,
4,4,35,35,24,{8}2,4,3,5,4,6,57,,7,,56,,56,,57,,7,5,6,4,5,3,24,3,3,,57,6,6,,14,2,2,,58,7,7,,25,3,47,6,15,15,{16}2x,4x,2x,4x,2x,,,,56,,,,7,8,7,,{4}1V35[8:1]/5h[8:1],
1b/7b-3[8:1],5-1[8:1]/7,5/7-5[8:1],1V35[8:1]/7,1/7-1[8:1],5-1[8:1]/7,5/7-3[8:1],{8}1V35[8:1]/7x,8x,{4}1x/7x-1[8:1],5-1[8:1]/7,5/7-5[8:1],1V35[8:1]/7,1/7-3b[8:1],1b/7b,{8}24,1,57,8,{4}2-4[8:1]/4,2/8V64[8:1],2-8[8:1]/8,2/4-8[8:1],2-6[8:1]/4,2/8V64[8:1],2-8[8:1]/8,2/4-8[8:1],2-6b[8:1]/4,28,{8}7V53[8:1],8,17,,{16}E2/B2,,,E4/B4,,,{8}E6/B6,,7,8,1,
2h[8:3]/6h[8:3],,,,{16}3,5,{8}4,26,,3b/5b,1,46,8,2h[8:1]/4h[8:1],{16},1,{8}1-5[8:1],,1/7-4[8:1],8,2-4[8:1]/7,1,2/7-5[8:1],8,2-6[8:1]/7,1,2/7-3[8:1],8,27,1h[4:1],{16},8x,{8}8x,2-5[8:1]/6,5,2/7-3[8:1],8,2-8[8:1]/7,1,2/6-2[8:1],7,4x-1[8:1]/6,3x,4x/7-5[8:1],5,3-1[8:1]/7,2,3/7x-3[8:1],8x,2-5[8:1]/7x,1,2/6-1[8:1],7,3-8[8:1]/6,2,3/7-4b[8:1],6,3h[4:1]/7,,{16}1x,,,5x/7x,,,2x/4x>5b[8:3],,{4},,
{2}Cf,,2xV46[4:3],,,7<3[4:3],,,2p5[2:1],,6p1[2:1],,2V84[2:1],,6-8[4:1],{4},12,2>5[2:1],C,,E4,7<4[2:1],C,,E6,3-5-2[2:1],C,,E8,6-4-7[2:1],C,,E2,{8}4x/7x,7,7,7,5x,5,5,5,4x,4,4,4,2x,2,2,2,{16}3,4,3,4,2,5,2,5,1,6,1,6,8,7,8,7,{4}8,8-4b[8:1]/1-5b[8:1],,,
{8}7bxh[16:1]/8bxh[16:1],7h[16:1]/8h[16:1],1h[16:1]/6h[16:1],1h[16:1]/6h[16:1],{16}7,8,{8}7,5h[16:1]/6h[16:1],5h[16:1]/6h[16:1],3bxh[16:1]/4bxh[16:1],3h[16:1]/4h[16:1],2h[16:1]/5h[16:1],2h[16:1]/5h[16:1],{16}3,4,{8}3,3h[16:1]/4h[16:1],4h[16:1]/5h[16:1],5bxh[16:1]/6bxh[16:1],5h[16:1]/6h[16:1],4h[16:1]/7h[16:1],4h[16:1]/7h[16:1],{16}6,5,{8}6,7h[16:1]/8h[16:1],7h[16:1]/8h[16:1],1bxh[16:1]/2bxh[16:1],1h[16:1]/2h[16:1],3h[16:1]/8h[16:1],3h[16:1]/8h[16:1],7-5[8:1]/4-2[8:1],47,,,2bxh[16:1]/4bxh[16:1],2xh[16:1]/4xh[16:1],3h[16:1]/5h[16:1],3h[16:1]/5h[16:1],{16}7,8,{8}7,1h[16:1]/6h[16:1],1h[16:1]/6h[16:1],5bxh[16:1]/7bxh[16:1],5h[16:1]/7h[16:1],4h[16:1]/6h[16:1],4h[16:1]/6h[16:1],{16}2,1,{8}2,3h[16:1]/8h[16:1],3h[16:1]/8h[16:1],2bxh[16:1]/5bxh[16:1],2h[16:1]/5h[16:1],4h[16:1]/7h[16:1],4h[16:1]/7h[16:1],{16}6,5,{8}6,2h[16:1]/8h[16:1],2h[16:1]/8h[16:1],4bxh[16:1]/7bxh[16:1],4h[16:1]/7h[16:1],2h[16:1]/5h[16:1],2h[16:1]/5h[16:1],{16}3,4,3,4,2,5,2,5,
{4}1>5[4:1],5<1[4:1],1>5[4:1],5<1[4:1],1V37[4:1],,8b-4b[8:1],,{8}1bh[16:1]/7bh[16:1],1h[16:1]/7h[16:1],3h[16:1]/4h[16:1],3h[16:1]/4h[16:1],{16}6,5,{8}6,2h[16:1]/8h[16:1],2h[16:1]/8h[16:1],3bh[16:1]/5bh[16:1],3h[16:1]/5h[16:1],7h[16:1]/8h[16:1],7h[16:1]/8h[16:1],{16}2,1,{8}2,4h[16:1]/6h[16:1],4h[16:1]/6h[16:1],1bh[16:1]/7bh[16:1],1h[16:1]/7h[16:1],2h[16:1]/8h[16:1],2h[16:1]/8h[16:1],2h[16:1]/4h[16:1],3h[16:1]/5h[16:1],4h[16:1]/6h[16:1],5h[16:1]/7h[16:1],1bh[16:1]/2bh[16:1],3h[16:1]/4h[16:1],5h[16:1]/6h[16:1],7h[16:1]/8h[16:1],1h[16:1]/2h[16:1],3h[16:1]/5h[16:1],6h[16:1]/8h[16:1],1h[16:1]/3h[16:1],4bh[16:1]/6bh[16:1],1h[16:1]/7h[16:1],2h[16:1]/4h[16:1],6h[16:1]/8h[16:1],{32}E2,E3,E4,E5,E6,E7,E8,E1,E2,E3,E4,E5,E6,E7,E8,E1,
{1}E2/Cf,2q6[2:1],6q2[2:1],2>5[2:1],{64}E6,B5,B4,E4,{16},{8},,,8-4[8:1]/1-5[8:1],27,1b/8b,,2-6[8:1],2,1-5[8:1],1,8-4[8:1],8,7-3[8:1],7,6-2[8:1],6,5-1[8:1],5,4-8[8:1],4,3-7[8:1],3,2-6[8:1],2,8-4[8:1],8,6-2[8:1],6,4-8[8:1],4,2h[8:1],,8-4-2[4:1]/1-5-7[4:1],27,18,,,,
3h[8:3]/5h[8:3],,,,35,3h[4:1]/5h[4:1],,,4h[8:3]/6h[8:3],,,,46,4h[4:1]/6h[4:1],,,3h[8:3]/5h[8:3],,,,35,3h[4:1]/5h[4:1],,,4h[8:3]/5h[8:3],,,,45,45,4b/5b,,2-4[8:1],1-5[8:1],2,1,8-4[8:1],7-5[8:1],8,7,1-3[8:1],8-4[8:1],1-5[8:1],8-6[8:1],1>4[8:1],8,1,7,{16}3,5,3,5,4,6,4,6,5,7,5,7,4,8,4,8,3,7,2,6,1,5,8,4,{32}1x,2x,3x,4x,5x,6x,7x,8x,{64}A1,D2,A2,D3,A3,D4,A4,D5,A5,D6,A6,D7,A7,D8,A8,D1,{4}A1/Ch[1:1],{1},,,,,,
E
Re:MASTER
最終更新:2026年05月17日 23:04