アットウィキロゴ

若い力

アーティスト 作詞:セガ社員、作曲:若草恵、歌:135

BPM BASIC ADVANCED EXPERT MASTER Re:MASTER
114 3 6 9 13 -

EXPERT MASTER Re:MASTER
譜面制作者 はっぴー 作譜:翠楼屋 -

BASIC


ADVANCED


EXPERT


MASTER

(114.07)
{32}1x,2x,3x,4x,5x,6x,7x,8x,1x,2x,3x,4x,5x,6x,7x,8x,
1x,2x,3x,4x,5x,6x,7x,8x,1x,2x,3x,4x,5x,6x,7x,8x,
1x,2x,3x,4x,5x,6x,7x,8x,1x,2x,3x,4x,5x,6x,7x,8x,
1x,2x,3x,4x,5x,6x,7x,8x,1x,2x,3x,4x,5x,6x,7x,8x,
{12}1x/Cf,,,,1b/2b,3b/8b,1b/2b,,,,8b/7bv4[3:2],6b/1bv4[12:7],{1}8b/7b,

{4}5h[6:5],,,{12},3,3,{2}2h[2:1]/4,{12}6,6,6,4,4,4,
{4}3/7h[6:5],,,{12},3,3,{2}2h[2:1]/4,{12}6,6,6,4,4,4,
5b-1[8:1],,,1x,,3b,3b-8[8:1],,,,7b,6b,{1}5bs1[2:1]/1b,

{4}1/7^4[8:1],,8/2^5[8:1],4,{8}1/7^4[8:1],1,,3,{4}1/2^5[8:1],,
{12}7h[4:1],,6,6q3[4:1],,5,{4}5,6<3[16:5],3,,45,{12}3/7^4[8:1],,5,
5,,,3^8[8:1]/7,,1,{8}1,6,{12}7^4[8:1],,8,{8}8,2,3^8[8:1],4,5,,{12}6h[4:1],,5,
{4}5-3[8:1],7-3[8:1],2-6[8:1],1w5[16:1],{64}E1,B8,Cf,B4,E5,,,,{8},,,{12}27,27,27,{8}27,45,

3/6h[4:1],8,5h[4:1],8,4h[4:1],1,3h[4:1],1,4h[4:1],1,5h[4:1],8,6h[4:1],8,5,8,
4-2[8:1],3,5-1[8:1],6,4-8[8:1],3,5w1[12:1],6,{48}E5,B4,Cf,B8,E1,,{8},,,{12}24,35,46,57,46,35,
{8}2^7[8:1]/4,,4,5,6^3[8:1],,1,,2b,4b/8b,,7b,1b/5b,,{12}24,,3,
{4}3^8[8:1],1,6^1[8:1],8-4[8:1],{2}Cf,{12}35,46,57,48,37,26,

{8}1>1[2:1]/5,,7x,8,1>5[4:1],,5<5[2:1],6,7,,5x<5[2:1],6,{2}7h[4:1],
{12}6-2[8:1],,6,5-1[8:1],,5,{4}4-8[8:1],3>5[4:1],Cf,,{12}5,5,46,{4}3^6[8:1]/7^2[8:1],
3b/7b-3[8:1],3b^6[8:1]/7b^2[8:1]`Cf,3b/7b-3[8:1],3b/7b`Cf,
{12}1b/Cf,,3b/6b,,1b/8b,1b/8b,{96}1b/8b`E1,B8,Cf,B4,E5,,,,,,,,{8},{12}2bv5[12:1]/8bv5[12:1],,1b,
2b/8b`Cf,,4x/6x,4x/6x,3x/7x,3x/7x,2x/8x,,,4-2[12:1]/5-1[12:1],,36,{1}4bV27[2:1]*V27[2:1]/5b`Cf,

{32}8x,7x,6x,5x,4x,3x,2x,1x,8x,7x,6x,5x,4x,3x,2x,1x,
8x,7x,6x,5x,4x,3x,2x,1x,8x,7x,6x,5x,4x,3x,2x,1x,
8x/E8,7x/E7,6x/E6,5x/E5,4x/E4,3x/E3,2x/E2,1x/E1,8x/E8,7x/E7,6x/E6,5x/E5,4x/E4,3x/E3,2x/E2,1x/E1,
8x/E8,7x/E7,6x/E6,5x/E5,4x/E4,3x/E3,2x/E2,1x/E1,8x/E8,7x/E7,6x/E6,5x/E5,4x/E4,3x/E3,2x/E2,1x/E1,
{12}8x/Cf,,,,1b/2b,5b/8b,1b/2b,,,,8b/7b,4b/1b,{2}8b/7hx[2:1],
{12}5,6,(85)4,(77)3^6[55#4:1]/7^2[55#4:1],(65)6,(40)2,{1}3b/7b-3[2:1],,,,E

Re:MASTER


  • MASTER譜面を追加しました。修正等ありましたらよろしくお願いします。 -- けもがみ (2026-04-12 07:16:54)
名前:
コメント:

タグ:

+ タグ編集
  • タグ:
最終更新:2026年04月12日 07:16