アットウィキロゴ

NOIZY BOUNCE

アーティスト 八王子P feat. ななひら・まめこ

BPM BASIC ADVANCED EXPERT MASTER Re:MASTER
150 2 6 10 13 -

EXPERT MASTER Re:MASTER
譜面制作者 鳩ホルダー はっぴー & サファ太 -

BASIC


ADVANCED


EXPERT


MASTER

(150){8}3/6h[8:13],,4,4h[4:1],,,4,,5,,4,4h[4:1],,,4/6,,3h[4:3]/5,,4,4h[4:1],,,4-8-6-3[2:1],,2h[4:3],,,,,,1,8x,2/7-5[8:1],,4,3,2-4[8:1],,4,5,6-8[8:1],,5,4,3-1[8:1],,4,5,6,6,2,2,{16}8,1,8,1,8-4[8:1],1,8,,{4}2bhx[4:3],,8x,5,

{8}4-2[8:1]/6,,6,,2x/5,,6,5,4-8[8:1]/6,,6,,1x/7,,5,4,3-5[8:1]/6,,6,,1x/6,,3>7[4:1]/6,,7>3[4:1],,5,,6-4[8:1]b,6,3,,3/4x-7[8:1],,3,,8x/4,,3,4,2/5-1[8:1],,2,,3,3,3/4-8[8:1],,2-6[8:1],,8x,,1bx/7bx,,2/6<5[2:1],,E5f/B4/B5,,,,1x,,2/8,,{16}7,5,,5,6,,6,,4/7,,8,,5/7,,6,,3,4,,4,2,,2,,8,,1,,2h[4:1]/5,,,,8,,7<4[8:1],,4,,3>8[8:1],,,,4x,,,,7,,1/7,,2-6[8:1]/6-4[8:1],,3,,2/6,,,,8x,,,,2,,2,4,,4,3,,3,,2/5,,1,,2/4,,3,,6,5,,5,7,,7,,1,,2/8,,3h[4:1]/7,,,,4,,5-7[8:1],,3,,4-1[8:1],,,,8x,,,,1x,,2x/5,,3x-1[8:1],4,,4,3x,,,,1x,,2bx/8bx,,,,

{8}3h[4:1]/5h[4:1],,,2/4,2h[4:1]/4h[4:1],,,,3h[4:1]/5h[4:1],,,6/4,6h[4:1]/4h[4:1],,,,5h[4:1]/6h[4:1],,,4/5,4h[4:1]/5h[4:1],,,3/4,3h[4:1]/4h[4:1],,,
4/5,4/5,,3/6,,{16}2h[16:3],,,4h[16:3],,,3,,7h[16:3],,,5h[16:3],,,6,,3h[16:3],,,4h[16:3],,,2,,1b/5b,,,,3/7,,,,{8}1,1,2/8,2/8,3/7,3/7,4/6,4/6,{12}7,5,6,2,4,3,8,6,7,1,3,2,{2}8bxh[2:1],4-1[8:1]*-7[8:1],

{16}2x/6x,,3-8[8:1],4,,4,3,,6,,7-4[8:1],8,,8,7,,1,,2,2,4,4,3,,5-2[8:1]*-8[8:1],,4/6,,,,,,3x/7x,,6-4[8:1],5,,5,6,,3,,2,2,8,8,1,,2-5[8:1]/6-8[8:1],,5,,2/6,,,,3-8[8:1]/7-4[8:1],,2,,3b/7b,,,,1x/5x,,2-5[8:1],4,,4,2,,6,,7<4[8:1],8,,8,7,,1x,,2,2,4,4,3,,5-2[8:1]*-8[8:1],,4/6,,,,,,3x/7x,,4/6,4/6,,3/5,3/5,,1x,,4,5,6pp5[4:1]/2pp1[4:1],,,,,,,,,,,,

{16}1x/5x,,,,3/8,,4/7,,5/6,,3,3,4x,,7,5,6,,3,3,4x,,7,5,6,,2,2,4x,,6,5,7,,3,4,1x,,2/8,,3h[8:3]/7,,,4,,,5-7[8:1],,5V31[4:1],,,,,,,,8,,,2/4,,,4/8,,6,5,,3,4,,1/8,,2x/7x,,6,6,5x,,2,4,3,,6,6,5x,,2,4,3,,7,7,5x,,3,4,2,,6,5,8x,,2/7,,3-5[8:1]/6,,,,3/7-3[8:1],,,,1-5[8:1]/7,,,,1/8,,,,6,4,6,4,5,3,5,3,7,4,6,5,

{4}8b<1[1:2]b,{1},,8<1[4:7],,8V64-2[2:3],1,1V35-7[2:3],8,{8}8h[4:1],,5,5,4/6h[4:1],,2,,2/4h[4:1],,1,1,2h[4:1]/8,,4,,3-6[4:1],,6,7,8-4[4:1],,4,3,2-6[4:1],,1,8,7-3[4:1],,4,,{16}1h[16:3],,,2h[16:3],,,3,,8h[16:3],,,7h[16:3],,,6,,2h[16:3],,,3h[16:3],,,4,,7h[16:3],,,6h[16:3],,,5,,{8}4,4,4,4,{16}4,5,4,5,4,5,4,5,{12}2,4,3,7,5,6,1,3,2,8,6,7,{2}1bh[2:1],4xw8[8:1]b,

{16}2x/6x,,3>8[8:1],4,2,4,3,,6,,7<4[8:1],8,6,8,7,,2,,2,1,3,1,2h[8:1],,8b,5,6,1b,4x,3,8b,,3x/7x,,6-4[8:1],5,7,5,6,,3,,2,2,8,8,1,,2>3-5[8:1]/6<7-1[8:1]b,,3/7,,2b/6b,,,,4>3-1[8:1]/8<7-5[8:1]b,,3/7,,4b/8b,,,,1x/5x,,2-5[8:1],1,3,1,2,,8,,6<1[8:1],5,7,5,6,,2x,,2,1,3,1,2h[8:1],,8b,5,6,1b,4x,3,8b,,4x/6x,,2,,3/5,,7,,1,8,1,8,2q4[8:3]b/7p5[8:3],3/6,4/5,,{4},,3bx/6bx,4/5,

{8}2-5[8:1]/4,,6,7,{16}8<5[8:1],,4,4,8,,2,,3h[4:1],,4,,6h[4:1],,5,,3,,3,4,,1,8,,4/7-4[8:1],,,,3,,2,,1h[8:1],,4,4,2V86V82[2:1],,5,,5x,,,,4x,,,,6-4[8:1]b,,6,,1,,,,3-8[8:1]/8,,,,7,,6,,5<8[8:1],,1,1,5,,2,,3h[4:1],,4,,6h[4:1],,5,,3,,3,4,,1,8,,4/7,,6,5,6<3>6[2:1],,4,,{2}3x,Ch[2:1],{16}5-8[8:1]b,,1,1,5b,,,,E

Re:MASTER


  • MASTER譜面を追加しました。修正等ありましたらよろしくお願いします。 -- Sugar (2026-05-29 22:05:07)
名前:
コメント:

タグ:

+ タグ編集
  • タグ:
最終更新:2026年05月29日 22:05