アットウィキロゴ

ミルキースター・シューティングスター

アーティスト 烏屋茶房 feat. 利香

BPM BASIC ADVANCED EXPERT MASTER Re:MASTER
184 3 7+ 10+ 12+ -

EXPERT MASTER Re:MASTER
譜面制作者 翠楼屋 シチミヘルツ -

BASIC


ADVANCED


EXPERT


MASTER



(184)

{1}1-6[1:4]/2-5[1:3],,,,

{4},,,{8},18,

{8},27,,3,4,5,6,7/Cf,

{2},{8}18,1/8<3[2:1],,Cf,

{2},{8}1,1>6[2:1],,Cf,

{2},{8}8,/8<3[2:1],,Cf,

{2},{8}1,1,,8b/Cf/B3,

{8},,,1b/Cf/B6,,,,8b/Cf/B3,,,,1b/Cf/B6,,,18,18,,5/7b,57,,2b/4,24,,5/7b,57,,26,,{16}4,5,4,5,3,6,3,6,

{4}1-5[8:1],1b/8,7/3-6[8:1],1,8/5-2[8:1],6,7/3-6[8:1],1,

{4}8/5-2[8:1],6,7/3-6[8:1],1,{8}48,48,37,3-8[8:1]/7-4[8:1],{2},

{4}1/4-7[8:1],3,2/6-3[8:1],8,1/4-7[8:1],3,2/6-3[8:1],8,

{4}1/4-7[8:1],3,26,{8}17,7^4[8:1]/1^4[8:1],

{2},{4}1b/8b,2b/7b,

{8}46,4/6h[8:13],,,,5,,5,,4,4,,B7/E7,,E6/B5,,

{8}3,3h[8:13],,,,4,,4,,5,5,,B2/E3,,B4/E4,,

{4}6h[2:1],5,4h[2:1],3,2h[2:1],1,1,28,

{8}57,57,,24,24,,46,4/6h[8:7],,,,,1b,,1b,,

{8}35,,37,,3,4,34,,3/B6/E6,,3/B4/E5,,3,7,37,,

{8}3/E5/B5,,3/E7/B7,,3,1,13,,3/B6/E6,,3/E5/B4,,3,7,37,,

{4}5^7[4:1],4,3pp5[4:1],8,1^6[4:1],4,3,26,

{8}17,,3,3,5,2q5[2:1],,8b,

{4},,8x,8x,

{4}3>6[4:5],,c,,,,c,,3>6[4:5],,c,,,,c,,

{1}3V14[1:1]*pp4[1:1],{4},,3x/5x,,

{4}4/6-1[1:1],4,4,4,4,4,4,4,

{4}4/8^5[1:1],4,3,3,2,2,1,1-5[8:1],

{4}8,7-4[8:1],1,2-5[8:1],{8}8,8,8,8,18,18,27,,

{4}C/B5/B4/B7/B2/E1,,,,1b,2b,3b,84,

{8}1x-6[8:1]/6-1[8:1],,1V73[4:1]/6V83[4:1],,,,,2x-6[8:1],

{8},8>4[4:1],,4<8[4:1],,8,,1-4[8:1],,7,6-1[8:1],5,4,3q6[4:1],,Cf,

{8},,,8h[4:1],,3,27,16,1-6[8:1]/6-1[8:1],,1V73[4:1]/6V83[4:1],,,,,2x-6[8:1],,8>4[4:1],,4<8[4:1],,8,,2h[4:1],,B7/E8,1b,B3/E3,1b,E6/B6,1b,E5/B4,1x/8x,1x/8x-3[8:1]*-5[8:1],,,,2b/6b,,,

{8}8-3[8:1]/3-8[8:1],,8V26[8:1]/3V16[8:1],,,,,7x-3[8:1],,1<5[4:1],,5>1[4:1],,1,,8-5[8:1],,2,3-8[8:1],4,5,6p3[4:1],,Cf,,,,1h[4:1],,6,27,38,3-8[8:1]/8-3[8:1],,8V26[8:1]/3V16[8:1],,,,,7x-4[8:1],,8,,2xh[4:1],,8,37,,

{8}56,47,,34,25,,57,48,,24,15,,18,27,3qq5[1:1]/6pp4[1:1],,

{1}3b/6b,{2},{16}1h[8:1]/2h[8:1],,,3h[8:1]/8h[8:1],,,47,,

{1}4bqq6[1:1]/7bpp5[1:1],{2},{16}7h[8:1]/8h[8:1],,,6h[8:1]/1h[8:1],,,25,,

{1}2bqq4[1:1]/5bpp3[1:1],{2},{16}1h[8:1]/8h[8:1],,,2h[8:1]/7h[8:1],,,36,,

{1}3bqq5[1:1]/6bpp4[1:1],{4},,1,8,

{16}57,,,,45,,,,2h[8:1]/4h[8:1],,,2h[8:1]/4h[8:1],,,35,,35,,,,46,,,,5h[8:1]/7h[8:1],,,5h[8:1]/7h[8:1],,,46,,46,,,,35,,,,2h[8:1]/4h[8:1],,,2h[8:1]/4h[8:1],,35,,35,,,,45,,,,18,,,,27,,,,

{4}4/5x-7[8:1],4,4/7x-5[8:1],4,5/4x-2[8:1],5,5/2x-4[8:1],5,4/5x-8[8:1],4,4/8x-5[8:1],4,5/4x-1[8:1],5,5/1x-4[8:1],5,

{4}5^8[8:1],2,4^1[8:1],7,5^8[8:1],2,4^1[8:1],7,5-8[8:1],4-1[8:1],5-7[8:1],4-2[8:1],5-8[8:1],4-1[8:1],5h[4:1],1x,

{4}27,E1/B7/C/B2/B5/B4,{2},,,,,,{4}1x/8x,1x/8x,

{4}5h[4:1],6h[4:1],7h[4:1],8h[4:1],1h[4:1],2,1/2-5[4:3],2/1-6[2:1],,,,,

{8}27,27,,5-8[8:1]/4,,1b,,,

{8}1-5[8:1]/2-5[8:1],,1V37[16:3]/2-7[4:1],,,,,6x^3[8:1],,6/1-5[8:1],,1/8-4[8:1],,28,,1-4[8:1],,7,6-1[8:1],5,4,3>6[4:1],8,8b,,,,5x-8[8:1],,1>7[4:1],,Cf,,8x,8x-3[8:1],,1V75[4:1],,5V31[4:1],,1V75[4:1],,5V31[4:1],,1,,8,,34,25,,56,47,,24,15,,57,48,,78,16,25,,12,B6/E5/B5,,78,E5/B4/B3,,12,B6/E5/B5,,18,{4}8/1^4[4:1],4-8[4:1],8^5[4:1],5-1[4:3],,,,

{4}8x,5b/2b-7[8:1],6-3[8:1],1-4[8:1],5-8[8:1],3-6[8:1],7-2[8:1],4-1[8:1],8-5[8:1],2-7[8:1],6-3[8:1],1h[4:1],{8}8,17,26,3/5-1[8:1],,1b,,38,

{4}3/8-3[8:1],4-7[8:1],1-6[8:1],5-2[8:1],7-4[8:1],3-8[8:1],6-1[8:1],2-5[8:1], 8-3[8:1],4-7[8:1],8-5[8:1]*-3[8:1],,

{8}26,3,48,7,16,27,8-3[8:1]/3-8[8:1],,{4}8bV26[4:13]/3bV16[4:13],,,,,,,,,,,,,,,7-3[8:1],,


E

Re:MASTER


  • マスター追加させてもらいました。間違いがあったらすいません。 -- やまかぜ (2026-05-07 02:06:24)
名前:
コメント:

タグ:

+ タグ編集
  • タグ:
最終更新:2026年05月07日 02:06