| アーティスト |
「PHANTASY STAR PORTABLE2」 |
EASY
BASIC
ADVANCED
EXPERT
MASTER
(155){1}
1-5[2:1],
5-2[2:1],
2-7[2:1],
7-4[2:1],
{4}
4-8[2:1]/5h[2:1],,,5,
6h[2:1],,,6,
7h[4:7]/8h[2:1],,,8^3[4:3],
,,,,
{8}
2h[1:1],,,,,,,3,
3h[1:1],,,,,,,4,
4h[1:1],,,,,,,5,
5h[1:1],,,,,,,6,
6h[2:1],,,7,7h[2:1],,,8,
8h[2:1],,,1,1h[2:1],,,2,
2h[2:1],,,3,3h[2:1],,,4,
4h[4:1],,5h[4:1],,6h[4:1],,7,,
8h[4:1]/7,,1,23,,56,,5,
6h[4:1]/5,,7,18,,34,,4,
3h[4:1]/4,,2,18,,56,,6,
5h[4:1]/6,,4,2b/3b,,7b/8b,,7,
1h[4:1]/7,,2,46,,57,,5,
7h[4:1]/5,,8,13,,24,,4,
2-7[8:1],2,,8-4[8:1],8,,7-2[8:1],7,
,5-8[8:5],5,,,,4-7[4:3],,
,,,,,,,,
1-6[8:1],,1,7-4[8:1],,7,,3,
,5h[8:3],6h[2:1],,,5,5,,
6-2[8:1],,6,3-7[8:1],,3,,5,
,4h[8:3],2h[2:1],,,4,4,,
1-5[8:1],,1,7-3[8:1],,7,,5^2[4:1],
,6h[8:5]/5,,,,2,2,,
8-4[8:1],,8,2-6[8:1],,2,,4^7[4:1],
,4,3h[2:1],,,7,7b,,
8-3[8:1],,8,2-5[8:1],,2,,6,
,4h[8:3],3h[2:1],,,4,4,,
3-7[8:1],,3,6-2[8:1],,6,,4,
,5h[8:3],7h[2:1],,,5,5,,
8-4[8:1],8,8,2-6[8:1],,2,,4^7[4:1],
,4,3h[2:1],,,,,78,
,12,,56,,34,,68,
,27,,35,,,4b,6b,
1-6[8:1],,1,7-4[8:1],,7,,3,
,5h[8:5],6h[2:1],,,,,17,
,4,8,3,,6h[8:3],2h[4:1],,
,,5,4h[4:1],,,1^6[2:1],2h[8:7],
,,,,,,6,,
4h[8:3],,,3h[8:3],,,8^3[2:1],,
7h[4:3],,,,,,3,,
5h[8:3],,,6h[8:3],,,1-5[2:1],,
,,,,,,5-2[2:1],,
,,,,,,2-7[2:1],,
,,,,,,7-4[2:1],,
,,,,,1-4[16:1],,,
{1},,
E
Re:MASTER
(155)
{8}78,6,5,4h[8:3],,,1,,21,3,4,5h[8:3],,,8,,
18,27,{2}3h[4:1]/6h[4:1],{8}4,4-1[8:1],,,5,5-8[8:1],,,1,1,
2b/6b,5h[8:1],4h[8:1],3h[4:1],,1,1,28,73,4h[8:1],5h[8:1],6h[4:1],,8,8,71,
{4}2V46[4:1]/6V82[4:1],,,{16}3,4,2,5,{1}1w5[4:1],
{8}2-6[8:1]/7,,28,8,,34,8,56,7-3[8:1]/2,,71,1,,65,1,43,
2-6[8:1]/5,,21,1,,34,8,56,7-3[8:1]/4,,78,8,,65,1,43,
2-6[8:1]/8,,24,4,,65,1,43,7-3[8:1]/1,,75,5,,34,8,56,
2-6[8:1]/8,,24,4,,65,1,43,5h[4:1]/6,,4,1-5[8:1]/8-4[8:1],,1b/8b,,,
1-5[8:1]/3,,8,8-4[8:1],,7,7,,8-4[8:1]/6,,1,1-5[8:1],,2,2,,
8-4[8:1]/3,,78,7-3[8:1],,6,6,,1-5[8:1]/6,,21,2-6[8:1],,3,3,,
1^4[8:1]/2,,18,8-4[8:1],,86,6,,8^5[8:1]/7,,81,1-5[8:1],,13,3,,
78,7-3[8:1]/8,,17,1-5[8:1],,18,8-4[8:1],,28,{4}2>7[4:1],,,
{16}18,,2,7,3,6,4,5,3,6,2,7,1,8,2,7,
{8}3h[4:1],,2,6/8-5[8:1],,8/1-4[8:1],,1/3s7[4:1],,8,8,,,56,18,34,
6h[4:1],,7,3/1-4[8:1],,1/8-5[8:1],,8/6z2[4:1],,1,1,,,43,81,65,
3h[4:1],,2,6/8p4[8:1],,8/1^6[8:1],,1/3s7[4:1],,8,8,,,56,18,34,
6h[4:1],,7,3/1q5[8:1],,1/8^3[8:1],,8/6z2[4:1],,1,1,,,43,81,65,
3h[4:1],,2,6/8v2[8:1],,8/1V75[8:1],,1/3s7[4:1],,8,8,,,56,18,34,
6h[4:1],,7,3/1v7[8:1],,1/8V24[8:1],,8/6z2[4:1],,1,1,,,43,65,81,
4b/5b,36,27,1-5[8:1]/8-4[8:1],,1-6[8:1]/8-3[8:1],,18,,45,4^1[8:1]/5^8[8:1],,,{4},
1b-5[8:1]/2b,8b-4[8:1]/1b,7b-3[8:1]/8b,6b/7b,
8b-4[8:1]/7b,1b-5[8:1]/8b,2h[8:3]/1b,{8},3,3,
24,,57,4-8[8:1]/5-1[8:1],,4-7[8:1]/5-2[8:1],,45,,18,{4}1^4[8:1]/8^5[8:1],,{8},
2/4-1[8:1],,45,6,5-8[8:1]/7,,45,3,27,18,18,27,27,,{16}4,5,3,6,2,7,
{2}1>7[4:1],{16},,8,7,6,5,4,3,{8}2V48[8:1],,,7V51[8:1],,,,{16}4,5,
{8}4,,45,36,,12,47,87,52,,,{16}18,18,{2}18,
{8}3b/7b,4h[8:1],5h[8:1],6h[4:1],,8,8,17,62,5h[8:1],4h[8:1],3h[4:1],,1,1,82,
{4}3V17[4:1]/7V53[4:1],,,{16}6,5,7,4,{4}8w4[4:1],,,{8},{1}2b/7b,,,,E
- Re:MASTER譜面を追加しました。修正等ありましたらよろしくお願いします。 -- けもがみ (2026-03-26 12:21:56)
最終更新:2026年10月04日 09:48