EASY
BASIC
ADVANCED
EXPERT
MASTER
(138)
{4},8,1,{2}2^7[8:5],
6^3[8:5],2^7[8:5],6^3[8:5],2^7[8:5],6^3[8:5],{1}2qq7[2:1],{2}7^2[8:5],
3^6[8:5],7^2[8:5],3^6[8:5],7^2[8:5],{4}3,5,8p2[8:3],,,8-5[8:1],,
2pp6[2:1]/7V16[2:1],,,{8},18,
1b/8b,,{2}3/4-1[8:1],6/5-8[8:1],3/4-1[8:1],{4}6h[4:1]/5,
8h[4:1],1h[4:1],3h[4:1],1h[4:1],8h[4:1],6h[4:1],5,{4}3/4-1[8:1],
2,6/5-8[8:1],7,3/4-1[8:1],2,6/5-8[8:1],7,3h[4:1]/4,
1h[4:1],8h[4:1],6h[4:1],8h[4:1],1h[4:1],3h[4:1],4,4/5<4[2:1],
1h[2:1],,,5/4>5[2:1],8h[2:1],,,4/5<4[2:1],1h[2:1],,,18,
{16}24,,,45,,,57,,,18,,,{4}1^6[4:1]/3v6[4:1],
,,5h[8:1]/6h[8:1],5h[8:1]/6h[8:1],4h[8:1]/3h[8:1],4h[8:1]/3h[8:1],5h[4:1]/6,8b,
{2}8bz4[8:1]*-5[8:1],8bz4[8:1]*-5[8:1],8bz4[8:1]*-5[8:1],8bz4[8:1]*-5[8:1],
1h[2:1]/8h[2:1],{4},27,36,4/5>1[8:3]*V31[8:3],,,
{2}7w3[8:1],7w3[8:1],7w3[8:1],7w3[8:1],
{8}18,18,{4}18,27,5b,7z3[8:3],,,1^3[8:1]/5,
6,1>5[8:1]/5,7,1>7[4:1]/5,8,1,1-5[8:1]/8-4[8:1],,
3h[4:1]/7,7h[4:1],3h[4:1],7h[4:1],2h[4:1],6h[4:1],1h[4:1],5h[4:1],
8h[4:1],4h[4:1],7h[4:1],3h[4:1],6h[4:1],2h[2:1],,5b,
{2}3h[2:1]/4,2h[4:5],1h[4:3],,6h[2:1]/5,7h[4:5],8h[4:3],,
{4}3h[2:1]/4,2,2h[4:5],1,1,1,1h[4:1],,6h[2:1]/5,7,7h[2:1],8,
{16}8,,,56,,,34,,,12,,,45,,45,,{4}27,,,{2}3b^1[8:1]/8b^6[8:1],
6^8[8:1]/1^3[8:1],3^1[8:1]/8^6[8:1],6^8[8:1]/1^3[8:1],{4}38,
61,38,61,38,6h[8:1]/1h[8:1],3h[8:1]/8h[8:1],4h[8:1]/5h[8:1],{2}6^8[8:1]/1^3[8:1],
3^1[8:1]/8^6[8:1],6^8[8:1]/1^3[8:1],3^1[8:1]/8^6[8:1],5-2[8:1]/6-1[8:1],
4-7[8:1]/3-8[8:1],{1}5q4[8:5]/6<4[8:5],{4}16,
{32}1b/6b,27,38,,,,,,8b/3b,72,61,,,,,,16,27,38,,,,,,83,72,61,,,,,,
16,27,38,,,,,,83,72,61,,,,,,16,27,38,,,,,,83,72,61,,,,,,
{4}1h[8:1]/6h[8:1],16,8h[8:1]/3h[8:1],83,16,83,16,83,
{32}8b/3b,72,61,,,,,,16,27,38,,,,,,83,72,61,,,,,,16,27,38,,,,,,
83,72,61,,,,,,16,27,38,,,,,,83,72,61,,,,,,16,27,38,,,,,,
4b/7b,36,25,,,,,,5b/2b,63,74,,,,,,47,36,25,,,,,,52,63,74,,,,,,
47,36,25,,,,,,52,63,74,,,,,,47,36,25,,,,,,52,63,74,,,,,,
8,7,6,5,4,3,2,1,8,7,6,5,4,3,2,1,8,7,6,5,4,3,2,1,{8}8,2b/7b,{1}2b/7b,,,,E
Re:MASTER
- MASTER譜面を追加しました。修正等ありましたらよろしくお願いします。 -- けもがみ (2026-04-09 06:02:47)
最終更新:2026年10月03日 22:28