BASIC
ADVANCED
EXPERT
MASTER
(135){16}45,,3,4,3,,5,4,6,5,6,5,8x,,8x,,
1b/7,,3,,56,,8,1^4[48:5],7,1,6,1x,,,56,,28,,6,,34,,6,1^4[48:5],7,1,8,1x,{8},56,
2h[8:1],4,56,2x/8x,7h[8:1],5,56,2x/8x,3h[8:1],4,6h[8:1],5,17,45,2b/8b,,
35,7,56,4,5-1[12:1]/7,8,5x/6,7,45,6,57,8,5-1[12:1]/6,4,5x/7,,
28,3,45,6,57,8^5[12:1],12,{16}8x,1,,3,4,,6,5,{8}7,4/8<3[8:1],12,8x,,
2b/6,35,4h[4:1],,1-4[12:1],8,17,,58,3,14,6,5/8-5[12:1],3,18,,
{16}2,4,3,4h[8:1],,3,2x/5,,6,4,5,3h[8:1],,4,2x/5,,78,,5,,3,,1,,3,4,3,4,{8}2b/5,,
47,36,25,1h[8:1],8-4[12:1],17,8,,57,6,24,3,5h[8:1]/7-5[16:1],8,7,,
34,2,56,7,8w4[12:1],17,8b,,{16}2,1,2,,45,,7,8w4[12:1]b,7x,,,{48},Cf,,{8},,
1h[4:1],8,7h[4:1],5,4h[2:1],6,5,3,2h[8:3],,3,3,14,58,6xh[8:1]/7xh[8:1],,
58,14,2xh[8:1]/3xh[8:1],,1,7,5,3,2-5[12:1]/4,1,26,7,1/2-4[12:1]*-6[12:1],8,2b,,
7h[4:1],5,2h[4:1],4,6^3[12:1],6,1,,2-8[16:1],2,6-4[16:1],6,3,1,28,28,
56,34,2^7[12:1],7^2[12:1],,,5,45,12,78,56,34,2^7[8:1]b/6q3[8:1]b,26,,,
4xh[8:1]/5xh[8:1],,45,3,2,1,28,37,4-2[16:1]/6-8[16:1],5,,,4-2[16:1]/6-8[16:1],5,,,
28,7,56,{16}3,4-8[12:1],2,,2,4,,,57,,28,,1,,57,,6,,3/4-8[12:1]b,,2,4,,,,,
5h[8:1]/7h[8:1],,,57,,46,,3,3,,6,5,6,5,8x,,57,,1,,57,,2,,57,,3,,6,5,4/8x,,
3,,24,,5,,46,,7,5,6,5,8x,,17,,26,,35,,4,,26,,7,5,6,5,{4}8b,
2h[4:3]/Cf,E8,E7,E6,E1/E5,E4/E8,E3/E7,E2/E6,
7h[4:3]/E1,E2,E3,E4,E1/E5,E2/E6,E3/E7,C/E1/E5,
{8}B1,B2,B3,B4,B5,B6,B7,B8,E2,E3,E4,E5,E6,E7,E8,E1,
D2,D3,D4,D5,D6,D7,D8,D1,A2,A3,A4,A5,A6,A7,{32}1,2,3,4,5,6,7,8,
{4}1x/Ch[1:1],,,,3,2,{16}1,,6,5,{8}6,48,
2,3,5,4,6^3[12:1],7,8x,8x,12,8,2,4,6^3[12:1],7/8x,8x,,
1h[8:1]/2,{16},2h[8:1]/3,,,34,,1/2h[8:1],,,2/3h[8:1],,,34,,7,5,6,5,7,5,6,5,7,5,6,5,8b,8,{8},
34,2,56,7,3/4q8[12:1],1,1,,2h[8:1],4,7h[8:1],5,3h[8:1],1,6h[8:1],8,
1xh[8:1]/7h[8:1],{16},1x/7,,26,,3,4,,45,,7b/8b,,1b/6b,,28,,3,5,4,6,{8}5,78,45,12,,
1x-7[16:1],1x-3[16:1],1x-5[12:1],1x-4[12:1],1x-6[12:1],1x-5[12:1],1x-7[16:1],1x-4[12:1],1x-6[12:1],1x-3[16:1],1x-5[12:1],1x^4[12:1],1x^6[12:1],1x-5[12:1],1x,1bx,
8,8,7,7,6<4[16:3],6,5,,1,3,5,7,1^4[12:1]b*^6[12:1]b,1,,,
5,46,3,2x/4x,3,3,1x/5x,,{16}6,5,6,,47,,47,,3,4,3,,25,,25,,
1xh[8:1]/8xh[8:1],,,18,,3,4,3,2xh[8:1]/8xh[8:1],,,28,,6,5,6,1xh[8:1]/7xh[8:1],,,17,,4,5,4,,,45,,{4}2b/7b,
,,,D1f/D2/D8/A1/A2/A7/A8,
{16}3b,4,3,4,1b,,28,,3b,4,3,8x,,17,,26,2b/6b,,4,,3b/7b,,5,,2b,1,2,8x-4[12:1],{8},,
2b,12,6b,56,3b-5[16:1],7-3[12:1],,,2b,12,7b,78,3b-5[16:1],7-3[12:1],3b,7x,
2b,2,2bh[8:1],1,3b,24,1b,28,7b,7,7bh[8:1],8,6b,57,8b,17,
2bh[8:1],D4/E4,7bh[8:1],D6/E6,1bh[8:1],D3/E3,8bh[8:1],D7/E7,1b>8[4:1],,,,C,E4/E5/E6,D1f/D2/D8/A1/A2/A7/A8,,
45,3-6[12:1]/6,27,3x,2-7[12:1],3-6[12:1],2x,3x,8h[8:1],{16},18,,27,,36,{8}36,45,1x/8x,2h[4:1],
7h[4:1],,2,7,3V58[8:1]/4^7[8:1],34,,,2,12,7,78,5^2[8:1]/6V41[8:1],56,,,
7x/8x,1x/2x,{16}3,4,3,,1x/8x,,6,5,6,5,8,,1/2-4[16:1],,4,,2/7-5[16:1],,5,,78,,4,,18,18,,,
3,4,{8}2-6[12:1],13,2,5,7-3[12:1],68,7,1x,3x/5x,8x,4x/6x,1x-5[12:1]b/8x,45,1b/8b,,
{1}Cf/A1/A5/B1/B5,,,,E
Re:MASTER
最終更新:2026年06月27日 15:48